Скачать через торрент Тобол Фильм бесплатно в хорошем качестве torrent

Скачивайте на UnionPeer.org фильмы через торрент без регистрации. Новинки кино в хорошем качестве через торрент. На UnionPeer.org можно скачать через торрент фильмы 2014 и 2015 годов. Самые новые фильмы.

Скачать торрент Тобол бесплатно через .torrent фильм мультфильм сериал

Статистика раздачи
Размер:  1.46 GB   |    Зарегистрирован:  1 месяц 3 дня   |    .torrent скачан:  105 раз   |   
Раздают:  1  
   
загрузка...
 
Автор Сообщение

Galfimbul

avatar Galfimbul


Тобол



[b]Год выхода:
2019
Жанр: История, драма
Страна: Россия
Перевод: Не требуется
Продолжительность: 01:48:01
Режиссер: Игорь Зайцев
В ролях: Илья Маланин, Дмитрий Назаров, Дмитрий Дюжев, Евгений Дятлов, Агата Муцениеце, Александр Лазарев мл., Андрей Бурковский, Юлия Макарова, Павел Табаков, Еркебулан Даиров и др.

О фильме: Молодой офицер новой гвардии Петра I Иван Демарин по заданию царя отправляется в глубину Сибири — в пограничный Тобольск. Здесь Иван встречает свою первую любовь и вместе со своим полком оказывается втянутым в заговор местных князей, охотящихся за золотом Яркенда. Его крепость окружена полчищами диких джунгар и помощи ждать неоткуда…



Файл
Формат: AVI
Качество: WEB-DLRip
Видео: Xvid 73, 720x304, ~1535 kbps, 24,000 fps
Звук: русский, AC3, 5.1 ch, 48 kHz, 384 kbps | iTunes
Субтитры: нет
General
Полное имя : E:TorrentTobolWEBDLRip.avi
Формат : AVI
Формат/Информация : Audio Video Interleave
Профиль формата : OpenDML
Размер файла : 1.46 GiB
Продолжительность : 1 h 48 min
Общий поток : 1 931 kb/s
Программа кодирования : XviD4PSP 6.0 / 54.27.101

Video
Идентификатор : 0
Формат : MPEG-4 Visual
Профиль формата : Advanced Simple@L5
Настройки формата : BVOP2 / Custom Matrix
Параметр BVOP формата : 2
Параметр QPel формата : No
Параметр GMC формата : No warppoints
Параметр матрицы формата : Custom
Идентификатор кодека : XVID
Идентификатор кодека/Подсказка : XviD
Продолжительность : 1 h 48 min
Битрейт : 1 535 kb/s
Ширина : 720 pixels
Высота : 304 pixels
Соотношение сторон : 2.35:1
Частота кадров : 24.000 FPS
Цветовое пространство : YUV
Субдискретизация насыщенности : 4:2:0
Битовая глубина : 8 bits
Тип развёртки : Progressive
Метод сжатия : Lossy
Бит/(Пиксели*Кадры) : 0.292
Размер потока : 1.16 GiB (79%)
Библиотека кодирования : XviD 73

Audio
Идентификатор : 1
Формат : AC-3
Формат/Информация : Audio Coding 3
Идентификатор кодека : 2000
Продолжительность : 1 h 48 min
Вид битрейта : Constant
Битрейт : 384 kb/s
Каналы : 6 channels
Расположение каналов : Front: L C R, Side: L R, LFE
Частота : 48.0 kHz
Частота кадров : 31.250 FPS (1536 SPF)
Битовая глубина : 16 bits
Метод сжатия : Lossy
Размер потока : 297 MiB (20%)
Выравнивание : Aligned on interleaves
Продолжительность промежутка : 32 ms (0.77 video frame)
Рип и релиз от:
Источник http://BlaTor.org

Трекер:  [ 20-Мар-2019 23:20 ]

  

Скачать .torrent

Размер .torrent файла 15 KB


Размер: 1.46 GB
Хэш (hash) релиза: fc824f4f7dc53fb5111da6b7654fc7e54d433ef7
Подписка на обновления:

Торренты, похожие на Тобол скачать торрент

Форум Название Автор Размер S L Добавлен
Российские фильмы 2016-2018 (Новинки русского кино) ·%· Тобол (2019) WEB-DLRip от GeneralFilm | iTunes Galfimbul 781955072746 MB 0 0 1553376630

00:30

24-Мар-19

Российские фильмы 2016-2018 (Новинки русского кино) ·%· Тобол (2019) WEB-DLRip от Scarabey | iTunes Galfimbul 15521812481.45 GB 0 0 1553275234

20:20

22-Мар-19

Российские фильмы 2016-2018 (Новинки русского кино) ·%· Тобол (2019) WEB-DLRip от Generalfilm | КПК | iTunes Galfimbul 427359901408 MB 0 0 1553197836

22:50

21-Мар-19

Российские фильмы 2016-2018 (Новинки русского кино) ·%· Тобол (2019) WEB-DLRip-AVC | iTunes Galfimbul 12889379311.2 GB 0 0 1553190654

20:50

21-Мар-19

Российские фильмы 2016-2018 (Новинки русского кино) ·%· Тобол (2019) WEB-DLRip-AVC от OlLanDGroup | iTunes Galfimbul 17732892121.65 GB 0 0 1553174424

16:20

21-Мар-19

Российские фильмы 2016-2018 (Новинки русского кино) ·%· Тобол (2019) WEB-DLRip от MegaPeer | iTunes Galfimbul 15692226561.46 GB 0 0 1553114462

23:41

20-Мар-19

Российские фильмы 2016-2018 (Новинки русского кино) ·%· Тобол (2019) WEB-DL 1080p | iTunes Galfimbul 39886408273.71 GB 0 0 1553107816

21:50

20-Мар-19

Еще никто не оставлял запись к записи скачать торрент Тобол . Будь первым!

!Обратная связь