Скачать через торрент Бамблби Bumblebee Фильм бесплатно в хорошем качестве torrent

Скачивайте на UnionPeer.org фильмы через торрент без регистрации. Новинки кино в хорошем качестве через торрент. На UnionPeer.org можно скачать через торрент фильмы 2014 и 2015 годов. Самые новые фильмы.

Скачать торрент Бамблби Bumblebee бесплатно через .torrent фильм мультфильм сериал

Статистика раздачи
Размер:  746 MB   |    Зарегистрирован:  5 месяцев   |    .torrent скачан:  42 раза   |   
Раздают:  1  
   
загрузка...
 
Автор Сообщение

Galfimbul

avatar Galfimbul


Название: Бамблби
Оригинальное название: Bumblebee
Год выхода: 2018
Жанр: Фантастика, боевик, приключения
Режиссер: Трэвис Найт
В ролях: Дилан О`Брайэн, Хейли Стайнфелд, Джастин Теру, Джон Сина, Анджела Бассетт, Памела Адлон, Мегин Прайс, Грей ДеЛайл, Питер Каллен, Кеннет Чои

О фильме :
1987 год. Скрываясь от преследования, Бамблби находит убежище на автомобильной свалке в калифорнийском городке, где живет Чарли. Девушке скоро исполнится 18, она стремится найти свое место в жизни. И именно она наталкивается на покореженного и сломленного Бамблби. Приведя его в чувство, Чарли моментально осознает: на ее пути оказался не простой желтый Фольксваген Жук…



Страна: США
Студия: Hasbro Inc., Paramount Pictures, Allspark Pictures, Bay Films, Di Bonaventura Pictures
Продолжительность: 01:53:53
Перевод: Дублированный | Лицензия

Файл
Формат: MKV
Качество: HDRip-AVC
Видео: MPEG-4 AVC, 768x432, - 838 Кбит/с
Аудио: AAC-HE, 2 ch, - 76 Кбит/с
Субтитры: Русские (форсированные)
Общее
Уникальный идентификатор : 228697706554856744089512520742290039758 (0xAC0D937D098EF95B8552C9496AFBA3CE)
Полное имя : D:MOVIESBumblebee.2018.HDRip-AVC.ExKinoRay.mkv
Формат : Matroska
Версия формата : Version 4 / Version 2
Размер файла : 746 Мбайт
Продолжительность : 1 ч. 53 м.
Общий поток : 916 Кбит/сек
Дата кодирования : UTC 2019-03-24 12:31:49
Программа кодирования : mkvmerge v15.0.0 ('Duel with the Devil') 64-bit
Библиотека кодирования : libebml v1.3.5 + libmatroska v1.4.5

Видео
Идентификатор : 1
Формат : AVC
Формат/Информация : Advanced Video Codec
Профиль формата : High@L4.1
Параметр CABAC формата : Да
Параметр RefFrames формата : 12 кадров
Идентификатор кодека : V_MPEG4/ISO/AVC
Продолжительность : 1 ч. 53 м.
Битрейт : 838 Кбит/сек
Ширина : 768 пикселей
Высота : 432 пикселя
Соотношение сторон : 16:9
Режим частоты кадров : Постоянный
Частота кадров : 23,976 (24000/1001) кадра/сек
Цветовое пространство : YUV
Субдискретизация насыщенности : 4:2:0
Битовая глубина : 8 бит
Тип развёртки : Прогрессивная
Бит/(Пиксели*Кадры) : 0.105
Размер потока : 683 Мбайт (92%)
Библиотека кодирования : x264 core 152 r2851kMod ba24899
Настройки программы : cabac=1 / ref=12 / deblock=1:-3:-3 / analyse=0x3:0x133 / me=umh / subme=10 / psy=1 / fade_compensate=0.00 / psy_rd=1.00:0.14 / mixed_ref=1 / me_range=32 / chroma_me=1 / trellis=2 / 8x8dct=1 / cqm=0 / deadzone=21,11 / fast_pskip=0 / chroma_qp_offset=-3 / threads=6 / lookahead_threads=1 / sliced_threads=0 / nr=0 / decimate=0 / interlaced=0 / bluray_compat=0 / constrained_intra=0 / bframes=12 / b_pyramid=2 / b_adapt=2 / b_bias=0 / direct=3 / weightb=1 / open_gop=0 / weightp=2 / keyint=240 / keyint_min=23 / scenecut=40 / intra_refresh=0 / rc_lookahead=40 / rc=2pass / mbtree=1 / bitrate=838 / ratetol=1.0 / qcomp=0.60 / qpmin=0 / qpmax=69 / qpstep=4 / cplxblur=20.0 / qblur=0.5 / ip_ratio=1.40 / aq=3:1.00
Default : Да
Forced : Нет

Аудио
Идентификатор : 2
Формат : AAC
Формат/Информация : Advanced Audio Codec
Профиль формата : HE-AAC / LC
Идентификатор кодека : A_AAC
Продолжительность : 1 ч. 53 м.
Битрейт : 76,0 Кбит/сек
Каналы : 2 канала
Расположение каналов : Front: L R
Частота : 48,0 КГц / 24,0 КГц
Частота кадров : 23,438 кадра/сек (1024 SPF)
Метод сжатия : С потерями
Задержка видео : 31 мс.
Размер потока : 61,9 Мбайт (8%)
Default : Да
Forced : Нет

Текст
Идентификатор : 3
Формат : UTF-8
Идентификатор кодека : S_TEXT/UTF8
Идентификатор кодека/Информация : UTF-8 Plain Text
Продолжительность : 1 ч. 45 м.
Битрейт : 1 бит/сек
ElementCount : 29
Размер потока : 1,14 Кбайт (0%)
Заголовок : fors
Язык : Russian
Default : Да
Forced : Да

Меню
00:00:00.000 : en:00:00:00.000
00:03:30.710 : en:00:03:30.710
00:12:16.486 : en:00:12:16.486
00:16:56.724 : en:00:16:56.724
00:21:03.053 : en:00:21:03.053
00:26:42.601 : en:00:26:42.601
00:32:33.326 : en:00:32:33.326
00:39:44.090 : en:00:39:44.090
00:45:18.591 : en:00:45:18.591
00:50:43.624 : en:00:50:43.624
00:54:16.253 : en:00:54:16.253
01:01:10.709 : en:01:01:10.709
01:06:26.900 : en:01:06:26.900
01:11:39.545 : en:01:11:39.545
01:16:08.105 : en:01:16:08.105
01:21:37.142 : en:01:21:37.142
01:25:08.603 : en:01:25:08.603
01:30:15.410 : en:01:30:15.410
01:36:46.801 : en:01:36:46.801
01:43:52.560 : en:01:43:52.560
01:49:43.202 : en:01:49:43.202
Источник http://BlaTor.org

Трекер:  [ 24-Мар-2019 16:10 ]

  

Скачать .torrent

Размер .torrent файла 15 KB


Размер: 746 MB
Хэш (hash) релиза: 79b40a7fb0fee8d8744407d7104c6442d1fd9ec7
Подписка на обновления:

Торренты, похожие на Бамблби Bumblebee скачать торрент

Форум Название Автор Размер S L Добавлен
Зарубежные фильмы 2016-2018 (Новинки зарубежного кино) ·%· Бамблби / Bumblebee (2018) BDRip от HQ-ViDEO | Лицензия Galfimbul 23405772802.18 GB 0 0 1558584022

07:00

23-Май-19

Зарубежные фильмы 2016-2018 (Новинки зарубежного кино) ·%· Бамблби / Bumblebee (2018) DVD9 | Лицензия Galfimbul 80545095687.5 GB 0 0 1556794825

14:00

2-Май-19

Зарубежные фильмы 2016-2018 (Новинки зарубежного кино) ·%· Бамблби / Bumblebee (2018) HDRip от MegaPeer | Лицензия Galfimbul 793725374757 MB 0 0 1555693211

20:00

19-Апр-19

Зарубежные фильмы 2016-2018 (Новинки зарубежного кино) ·%· Бамблби / Bumblebee (2018) Blu-Ray EUR 1080p | Лицензия Galfimbul 4883268280845.48 GB 0 0 1555681226

16:40

19-Апр-19

Зарубежные фильмы 2016-2018 (Новинки зарубежного кино) ·%· Бамблби / Bumblebee (2018) UHD BDRip 1080p | D Galfimbul 1390037691712.95 GB 0 0 1554587425

00:50

7-Апр-19

Зарубежные фильмы 2016-2018 (Новинки зарубежного кино) ·%· Бамблби / Bumblebee (2018) BDRip-AVC от OlLanDGroup | D, P | Лицензия Galfimbul 25018750232.33 GB 0 0 1553713822

22:10

27-Мар-19

Зарубежные фильмы 2016-2018 (Новинки зарубежного кино) ·%· Бамблби / Bumblebee (2018) BDRip 1080p от qqss44 & MegaPeer | Лицензия Galfimbul 93452978918.7 GB 0 0 1553701895

18:51

27-Мар-19

Зарубежные фильмы 2016-2018 (Новинки зарубежного кино) ·%· Бамблби / Bumblebee (2018) BDRip 720p от HELLYWOOD | Лицензия Galfimbul 61813645775.76 GB 0 0 1553662886

08:01

27-Мар-19

Зарубежные фильмы 2016-2018 (Новинки зарубежного кино) ·%· Бамблби / Bumblebee (2018) BDRip от ExKinoRay | Лицензия Galfimbul 15727292401.46 GB 2 0 1553619684

20:01

26-Мар-19

Зарубежные фильмы 2016-2018 (Новинки зарубежного кино) ·%· Бамблби / Bumblebee (2018) BDRip от ExKinoRay | Лицензия Galfimbul 23553485762.19 GB 0 0 1553619665

20:01

26-Мар-19

Зарубежные фильмы 2016-2018 (Новинки зарубежного кино) ·%· Бамблби / Bumblebee (2018) BDRip-AVC от HELLYWOOD | Лицензия Galfimbul 31306791222.92 GB 0 0 1553608861

17:01

26-Мар-19

Зарубежные фильмы 2016-2018 (Новинки зарубежного кино) ·%· Бамблби / Bumblebee (2018) BDRip от MegaPeer | D, P | Лицензия Galfimbul 23478596732.19 GB 0 0 1553599312

14:21

26-Мар-19

Зарубежные фильмы 2016-2018 (Новинки зарубежного кино) ·%· Бамблби / Bumblebee (2018) UHD BDRemux 2160p от ExKinoRay | 4K | HDR | Dolby Vision | Лицензия Galfimbul 5651883238352.64 GB 0 0 1553430035

15:20

24-Мар-19

Зарубежные фильмы 2016-2018 (Новинки зарубежного кино) ·%· Бамблби / Bumblebee (2018) UHD BDRip 1080p от селезень | D, P | Лицензия Galfimbul 1166853398810.87 GB 0 0 1553410808

10:00

24-Мар-19

Зарубежные фильмы 2016-2018 (Новинки зарубежного кино) ·%· Бамблби / Bumblebee (2018) BDRip 1080p от селезень | D, P | Лицензия Galfimbul 1734233754816.15 GB 0 0 1553382010

02:00

24-Мар-19

Зарубежные фильмы 2016-2018 (Новинки зарубежного кино) ·%· Бамблби / Bumblebee (2018) UHD BDRemux 2160p от ExKinoRay | 4K | HDR | Dolby Vision | Лицензия Galfimbul 4765211366544.38 GB 0 0 1553356221

18:50

23-Мар-19

Зарубежные фильмы 2016-2018 (Новинки зарубежного кино) ·%· Бамблби / Bumblebee (2018) HDRip от MegaPeer | Лицензия Galfimbul 15687062651.46 GB 0 0 1553355676

18:41

23-Мар-19

Зарубежные фильмы 2016-2018 (Новинки зарубежного кино) ·%· Бамблби / Bumblebee (2018) UHD BDRemux 2160p | 4K | HDR | D, P | Лицензия Galfimbul 4786308996544.58 GB 0 0 1553353220

18:00

23-Мар-19

Зарубежные фильмы 2016-2018 (Новинки зарубежного кино) ·%· Бамблби / Bumblebee (2018) BDRip 720p от селезень | D, P | Лицензия Galfimbul 88112806908.21 GB 0 0 1553352043

17:40

23-Мар-19

Еще никто не оставлял запись к записи скачать торрент Бамблби Bumblebee . Будь первым!

!Обратная связь