Скачать через торрент Наркокурьер The Mule Фильм бесплатно в хорошем качестве torrent

Скачивайте на UnionPeer.org фильмы через торрент без регистрации. Новинки кино в хорошем качестве через торрент. На UnionPeer.org можно скачать через торрент фильмы 2014 и 2015 годов. Самые новые фильмы.

Скачать торрент Наркокурьер The Mule бесплатно через .torrent фильм мультфильм сериал

Статистика раздачи
Размер:  12.31 GB   |    Зарегистрирован:  27 дней   |    .torrent скачан:  175 раз   |   
Раздают:  1  
   
загрузка...
 
Автор Сообщение

Galfimbul

avatar Galfimbul


Наркокурьер /The Mule

Год выхода: 2018
Жанр: Триллер, драма, криминал, детектив
Режиссер: Клинт Иствуд
В ролях: Клинт Иствуд, Брэдли Купер, Таисса Фармига, Элисон Иствуд, Майкл Пенья, Энди Гарсиа, Лоуренс Фишборн, Дайэнн Уист, Игнасио Серричио, Джилл Флинт



О фильме: Эрл Стоун - одинокий старик. Его частный бизнес находится на грани разорения, отношения с женой не ладятся, а дети, кажется, давно забыли о его существовании. Неожиданно ему предлагают непыльную, но прибыльную работенку - просто водить машину. Стоун поначалу соглашается и вскоре понимает, что стал наркокурьером мексиканского картеля и попал в поле зрения оперативника Агентства по контролю за оборотом наркотиков.

Страна: США
Студия: Warner Bros., Imperative Entertainment, Bron Creative
Продолжительность: 01:56:27
Перевод: Авторский | М. Яроцкий

Качество: BDRip 1080p
Видео: MPEG-4 AVC, 1920x804, 11.5 Mbit/s, 23.976 fps
Звук:
Аудио #01: 48 kHz, DTS, 5.1, 1510 Kbps | Авторский | RUS |
Аудио #02: 48 kHz, AC3, 5.1, 640 Kbps | Авторский | RUS |
Аудио #03: 48 kHz, DTS, 5.1, 1510 Kbps | Оригинал | ENG |
Субтитры: Английские

General
Unique ID : 100322989431192208321991779131808824125 (0x4B7981441D5C7E0AB2012977FD803B3D)
Complete name : D:Video111The.Mule.2018.AVO.BDRip.1080p.seleZen.mkv
Format : Matroska
Format version : Version 4
File size : 12.3 GiB
Duration : 1 h 56 min
Overall bit rate : 15.1 Mb/s
Movie name : The Mule 2018 from селезень
Encoded date : UTC 2019-03-28 00:35:49
Writing application : mkvmerge v32.0.0 ('Astral Progressions') 64-bit
Writing library : libebml v1.3.7 + libmatroska v1.5.0

Video
ID : 1
Format : AVC
Format/Info : Advanced Video Codec
Format profile : High@L4.1
Format settings : CABAC / 4 Ref Frames
Format settings, CABAC : Yes
Format settings, ReFrames : 4 frames
Codec ID : V_MPEG4/ISO/AVC
Duration : 1 h 56 min
Bit rate : 11.5 Mb/s
Width : 1 920 pixels
Height : 804 pixels
Display aspect ratio : 2.40:1
Frame rate mode : Constant
Frame rate : 23.976 (24000/1001) FPS
Color space : YUV
Chroma subsampling : 4:2:0
Bit depth : 8 bits
Scan type : Progressive
Bits/(Pixel*Frame) : 0.310
Stream size : 9.33 GiB (76%)
Title : CHD
Writing library : x264 core 155 r2867+74 66b5600 t_mod_Custom_2 [8-bit@all X86_64]
Encoding settings : cabac=1 / ref=4 / deblock=1:-3:-3 / analyse=0x3:0x133 / me=umh / subme=10 / psy=1 / fade_compensate=0.00 / psy_rd=0.95:0.10 / mixed_ref=1 / me_range=48 / chroma_me=1 / trellis=2 / 8x8dct=1 / cqm=0 / deadzone=21,11 / fast_pskip=0 / chroma_qp_offset=-4 / threads=18 / lookahead_threads=3 / sliced_threads=0 / nr=0 / decimate=1 / interlaced=0 / bluray_compat=0 / constrained_intra=0 / fgo=0 / bframes=8 / b_pyramid=2 / b_adapt=2 / b_bias=0 / direct=3 / weightb=1 / open_gop=0 / weightp=2 / keyint=250 / keyint_min=23 / scenecut=40 / intra_refresh=0 / rc_lookahead=60 / rc=crf / mbtree=0 / crf=20.0000 / qcomp=0.70 / qpmin=0:0:0 / qpmax=69:69:69 / qpstep=4 / vbv_maxrate=35000 / vbv_bufsize=35000 / crf_max=0.0 / nal_hrd=none / filler=0 / ip_ratio=1.40 / pb_ratio=1.30 / aq=3:1.00 / aq-sensitivity=10.00 / aq-factor=1.00:1.00:1.00 / aq2=0 / aq3=2:[0.50:0.50]:[0.50:0.50]:[0.50:0.50]:[0.50:0.50] / aq3-sensitivity=10.00 / aq3-factor=[1.00:1.00]:[1.00:1.00]:[1.00:1.00] / aq3-boundary=192:64:24
Language : English
Default : Yes
Forced : No

Audio #1
ID : 2
Format : DTS
Format/Info : Digital Theater Systems
Codec ID : A_DTS
Duration : 1 h 56 min
Bit rate mode : Constant
Bit rate : 1 509 kb/s
Channel(s) : 6 channels
Channel layout : C L R Ls Rs LFE
Sampling rate : 48.0 kHz
Frame rate : 93.750 FPS (512 SPF)
Bit depth : 24 bits
Compression mode : Lossy
Stream size : 1.23 GiB (10%)
Title : AVO [kyberpunk]
Language : Russian
Default : Yes
Forced : Yes

Audio #2
ID : 3
Format : AC-3
Format/Info : Audio Coding 3
Commercial name : Dolby Digital
Codec ID : A_AC3
Duration : 1 h 56 min
Bit rate mode : Constant
Bit rate : 640 kb/s
Channel(s) : 6 channels
Channel layout : L R C LFE Ls Rs
Sampling rate : 48.0 kHz
Frame rate : 31.250 FPS (1536 SPF)
Bit depth : 16 bits
Compression mode : Lossy
Stream size : 533 MiB (4%)
Title : AVO [kyberpunk]
Language : Russian
Service kind : Complete Main
Default : No
Forced : No

Audio #3
ID : 4
Format : DTS
Format/Info : Digital Theater Systems
Codec ID : A_DTS
Duration : 1 h 56 min
Bit rate mode : Constant
Bit rate : 1 509 kb/s
Channel(s) : 6 channels
Channel layout : C L R Ls Rs LFE
Sampling rate : 48.0 kHz
Frame rate : 93.750 FPS (512 SPF)
Bit depth : 24 bits
Compression mode : Lossy
Stream size : 1.23 GiB (10%)
Title : Original
Language : English
Default : No
Forced : No

Text
ID : 5
Format : UTF-8
Codec ID : S_TEXT/UTF8
Codec ID/Info : UTF-8 Plain Text
Duration : 1 h 46 min
Bit rate : 59 b/s
Count of elements : 1517
Stream size : 46.7 KiB (0%)
Title : Full
Language : English
Default : No
Forced : No

Menu
00:00:00.000 : :??01 ??
00:06:45.822 : :??02 ??
00:15:27.885 : :??03 ??
00:23:24.236 : :??04 ??
00:32:22.482 : :??05 ??
00:40:29.886 : :??06 ??
00:48:20.564 : :??07 ??
00:57:55.347 : :??08 ??
01:07:17.408 : :??09 ??
01:16:17.364 : :??10 ??
01:23:18.785 : :??11 ??
01:32:20.160 : :??12 ??
01:39:12.947 : :??13 ??
01:46:17.580 : :??14 ??
01:48:52.443 : :??15 ??
Источник http://BlaTor.org

Трекер:  [ 28-Мар-2019 04:00 ]

  

Скачать .torrent

Размер .torrent файла 123 KB


Размер: 12.31 GB
Хэш (hash) релиза: 0e6fdaa1d396136fc254970ed9f29c080e1c4780
Подписка на обновления:

Еще никто не оставлял запись к записи скачать торрент Наркокурьер The Mule . Будь первым!

!Обратная связь