Скачать через торрент Т-34 Фильм бесплатно в хорошем качестве torrent

Скачивайте на UnionPeer.org фильмы через торрент без регистрации. Новинки кино в хорошем качестве через торрент. На UnionPeer.org можно скачать через торрент фильмы 2014 и 2015 годов. Самые новые фильмы.

Скачать торрент Т-34 бесплатно через .torrent фильм мультфильм сериал

Статистика раздачи
Размер:  2.17 GB   |    Зарегистрирован:  5 месяцев 18 дней   |    .torrent скачан:  80 раз   |   
Раздают:  1  
   
загрузка...
 
Автор Сообщение

Galfimbul

avatar Galfimbul


Т-34



[b]Год выхода:
2018
Жанр: Драма, военный, приключения
Страна: Россия
Перевод: Русский язык + одноголосый на немецкую речь | Лицензия BD RUS
Продолжительность: 02:19:08
Режиссер: Алексей Сидоров
В ролях: Александр Петров, Виктор Добронравов, Ирина Старшенбаум, Винценц Кифер, Петр Скворцов, Семен Трескунов, Антон Богданов, Василий Уриевский, Василий Буткевич, Ярослав Штефан и др.

О фильме: Во времена величайших испытаний человечества, когда от каждого действия зависят жизни любимых, два заклятых врага начнут свое противостояние. Оказавшись в плену, вчерашний курсант Ивушкин планирует дерзкий побег. Он собирает свой экипаж и на легендарной «тридцатьчетверке» бросает вызов немецким танковым асам во главе с Ягером. Ради своей любви и Родины он готов идти до конца.



Файл
Формат: AVI
Качество: BDRip | BD RUS
Видео: Xvid 73, 720x304, ~1775 kbps, 24,000 fps
Звук: русский, AC3, 5.1 ch, 48 kHz, 16 bit, 448 kbps
Субтитры: нет
General
Полное имя : E:TorrentT34BDRip2.avi
Формат : AVI
Формат/Информация : Audio Video Interleave
Профиль формата : OpenDML
Размер файла : 2.17 GiB
Продолжительность : 2 h 19 min
Общий поток : 2 233 kb/s
Программа кодирования : XviD4PSP 6.0 / 54.27.101

Video
Идентификатор : 0
Формат : MPEG-4 Visual
Профиль формата : Advanced Simple@L5
Настройки формата : BVOP2 / Custom Matrix
Параметр BVOP формата : 2
Параметр QPel формата : No
Параметр GMC формата : No warppoints
Параметр матрицы формата : Custom
Идентификатор кодека : XVID
Идентификатор кодека/Подсказка : XviD
Продолжительность : 2 h 19 min
Битрейт : 1 775 kb/s
Ширина : 720 pixels
Высота : 304 pixels
Соотношение сторон : 2.35:1
Частота кадров : 24.000 FPS
Цветовое пространство : YUV
Субдискретизация насыщенности : 4:2:0
Битовая глубина : 8 bits
Тип развёртки : Progressive
Метод сжатия : Lossy
Бит/(Пиксели*Кадры) : 0.338
Размер потока : 1.72 GiB (79%)
Библиотека кодирования : XviD 73

Audio
Идентификатор : 1
Формат : AC-3
Формат/Информация : Audio Coding 3
Идентификатор кодека : 2000
Продолжительность : 2 h 19 min
Вид битрейта : Constant
Битрейт : 448 kb/s
Каналы : 6 channels
Расположение каналов : Front: L C R, Side: L R, LFE
Частота : 48.0 kHz
Частота кадров : 31.250 FPS (1536 SPF)
Битовая глубина : 16 bits
Метод сжатия : Lossy
Размер потока : 446 MiB (20%)
Выравнивание : Aligned on interleaves
Продолжительность промежутка : 32 ms (0.77 video frame)
Рип и релиз от:
Источник http://BlaTor.org

Трекер:  [ 29-Мар-2019 08:10 ]

  

Скачать .torrent

Размер .torrent файла 11 KB


Размер: 2.17 GB
Хэш (hash) релиза: 53dc1b69c87c0cec1f2bdc5e1ed2b72ed63a4f9b
Подписка на обновления:

Торренты, похожие на Т-34 скачать торрент

Форум Название Автор Размер S L Добавлен
Документальные фильмы и телепередачи ·· Т-34: Победа России / T-34: Russian Victory [2001, Документальный фильм, TVRip] Galfimbul 369548378352 MB 0 0 1498328037

21:13

24-Июн-17

Российские фильмы 2016-2018 (Новинки русского кино) ·%· Т-34 (2018) BDRip-AVC от HELLYWOOD | Лицензия Galfimbul 15672736141.46 GB 0 0 1554397870

20:11

4-Апр-19

Российские фильмы 2016-2018 (Новинки русского кино) ·%· Т-34 (2018) BDRip 720p от HELLYWOOD | Лицензия Galfimbul 61845664385.76 GB 0 0 1554347428

06:10

4-Апр-19

Российские фильмы 2016-2018 (Новинки русского кино) ·%· Т-34 (2018) HDRip-AVC | Лицензия Galfimbul 780575608744 MB 0 0 1554315140

21:12

3-Апр-19

Российские фильмы 2016-2018 (Новинки русского кино) ·%· Т-34 (2018) DVD5 | Лицензия Galfimbul 45192785924.21 GB 0 0 1554240629

00:30

3-Апр-19

Российские фильмы 2016-2018 (Новинки русского кино) ·%· Т-34 (2018) BDRip-HEVC 1080p от HANNIBAL | Лицензия Galfimbul 88834322498.27 GB 0 0 1554227439

20:50

2-Апр-19

Зарубежные фильмы 2016-2018 (Новинки зарубежного кино) ·%· Т-34 (2018) BDRip 720p от k.e.n & MegaPeer | Лицензия Galfimbul 46933009754.37 GB 0 0 1554183611

08:40

2-Апр-19

Российские фильмы 2016-2018 (Новинки русского кино) ·%· Т-34 (2018) HDRip от Portablius | Лицензия Galfimbul 836939776798 MB 0 0 1553940028

13:00

30-Мар-19

Российские фильмы 2016-2018 (Новинки русского кино) ·%· Т-34 (2018) BDRip 720p | Лицензия Galfimbul 78141022607.28 GB 0 0 1553836372

08:12

29-Мар-19

Российские фильмы 2016-2018 (Новинки русского кино) ·%· Т-34 (2018) WEB-DLRip от Scarabey | iTunes Galfimbul 15546675201.45 GB 0 0 1553016613

20:30

19-Мар-19

Российские фильмы 2016-2018 (Новинки русского кино) ·%· Т-34 (2018) WEB-DLRip от Scarabey | iTunes Galfimbul 836820992798 MB 0 0 1552933221

21:20

18-Мар-19

Российские фильмы 2016-2018 (Новинки русского кино) ·%· Т-34 (2018) WEB-DLRip от Scarabey | iTunes Galfimbul 23354839042.18 GB 0 0 1552929632

20:20

18-Мар-19

Российские фильмы 2016-2018 (Новинки русского кино) ·%· Т-34 (2018) WEB-DLRip-AVC от OlLanDGroup | iTunes Galfimbul 22678821212.11 GB 0 0 1552739453

15:30

16-Мар-19

Российские фильмы 2016-2018 (Новинки русского кино) ·%· Т-34 (2018) WEB-DLRip от MegaPeer | iTunes Galfimbul 15682129921.46 GB 0 0 1552733465

13:51

16-Мар-19

Российские фильмы 2016-2018 (Новинки русского кино) ·%· Т-34 (2018) WEB-DLRip от MegaPeer | iTunes Galfimbul 833902592795 MB 0 0 1552733443

13:50

16-Мар-19

Российские фильмы 2016-2018 (Новинки русского кино) ·%· Т-34 (2018) WEB-DLRip от MegaPeer | iTunes Galfimbul 23438274562.18 GB 0 0 1552724424

11:20

16-Мар-19

Российские фильмы 2016-2018 (Новинки русского кино) ·%· Т-34 (2018) WEB-DL 1080p | iTunes Galfimbul 51369225604.78 GB 0 0 1552696217

03:30

16-Мар-19

Российские фильмы 2016-2018 (Новинки русского кино) ·%· Т-34 (2018) WEBRip 720p Galfimbul 35161833653.27 GB 2 0 1549255811

07:50

4-Фев-19

Российские фильмы 2016-2018 (Новинки русского кино) ·%· Т-34 (2018) WEBRip-AVC Galfimbul 22869815162.13 GB 0 0 1549211411

19:30

3-Фев-19

Еще никто не оставлял запись к записи скачать торрент Т-34 . Будь первым!

!Обратная связь