Скачать через торрент Т-34 Фильм бесплатно в хорошем качестве torrent

Скачивайте на UnionPeer.org фильмы через торрент без регистрации. Новинки кино в хорошем качестве через торрент. На UnionPeer.org можно скачать через торрент фильмы 2014 и 2015 годов. Самые новые фильмы.

Скачать торрент Т-34 бесплатно через .torrent фильм мультфильм сериал

Статистика раздачи
Размер:  798 MB   |    Зарегистрирован:  6 месяцев   |    .torrent скачан:  41 раз   |   
Раздают:  1  
   
загрузка...
 
Автор Сообщение

Galfimbul

avatar Galfimbul


Т-34



[b]Год выхода:
2018
Жанр: Драма, военный, приключения
Режиссер: Алексей Сидоров
В ролях: Александр Петров, Виктор Добронравов, Ирина Старшенбаум, Винценц Кифер, Петр Скворцов, Семен Трескунов, Антон Богданов, Василий Уриевский, Василий Буткевич, Ярослав Штефан и др.

О фильме: Во времена величайших испытаний человечества, когда от каждого действия зависят жизни любимых, два заклятых врага начнут свое противостояние. Оказавшись в плену, вчерашний курсант Ивушкин планирует дерзкий побег. Он собирает свой экипаж и на легендарной «тридцатьчетверке» бросает вызов немецким танковым асам во главе с Ягером. Ради своей любви и Родины он готов идти до конца.



Страна: Россия
Продолжительность: 02:19:08
Перевод: Не требуется
Субтитры: Нет

Файл
Кодек: XviD
Качество: HDRip
Видео: 640x272 (2.35:1), 24.000 fps, XviD build 73 ~664 kbps avg, 0.16 bit/pixel
Звук: 48 kHz, MPEG Layer 3, 2 ch, ~128.00 kbps avg
General
Complete name : Т.34.2018.HDRip.Portablius.avi
Format : AVI
Format/Info : Audio Video Interleave
File size : 798 MiB
Duration : 2 h 19 min
Overall bit rate : 802 kb/s
Writing application : VirtualDubMod 1.5.10.3 | www.virtualdub-fr.org || (build 2550/release)
Writing library : VirtualDubMod build 2550/release

Video
ID : 0
Format : MPEG-4 Visual
Format profile : Advanced Simple@L5
Format settings : BVOP1 / Custom Matrix
Format settings, BVOP : 1
Format settings, QPel : No
Format settings, GMC : No warppoints
Format settings, Matrix : Custom
Codec ID : XVID
Codec ID/Hint : XviD
Duration : 2 h 19 min
Bit rate : 665 kb/s
Width : 640 pixels
Height : 272 pixels
Display aspect ratio : 2.35:1
Frame rate : 24.000 FPS
Color space : YUV
Chroma subsampling : 4:2:0
Bit depth : 8 bits
Scan type : Progressive
Compression mode : Lossy
Bits/(Pixel*Frame) : 0.159
Stream size : 661 MiB (83%)
Writing library : XviD 73

Audio
ID : 1
Format : MPEG Audio
Format version : Version 1
Format profile : Layer 3
Codec ID : 55
Codec ID/Hint : MP3
Duration : 2 h 19 min
Bit rate mode : Constant
Bit rate : 128 kb/s
Channel(s) : 2 channels
Sampling rate : 48.0 kHz
Frame rate : 41.667 FPS (1152 SPF)
Compression mode : Lossy
Stream size : 127 MiB (16%)
Alignment : Aligned on interleaves
Interleave, duration : 42 ms (1.00 video frame)
Interleave, preload duratio : 504 ms
Writing library : LAME3.99r
Encoding settings : -m s -V 4 -q 2 -lowpass 17 -b 128
Источник http://BlaTor.org

Трекер:  [ 30-Мар-2019 13:00 ]

  

Скачать .torrent

Размер .torrent файла 16 KB


Размер: 798 MB
Хэш (hash) релиза: d3337f3f53ee0b75c8fdab13369d7dc3a56046e4
Подписка на обновления:

Торренты, похожие на Т-34 скачать торрент

Форум Название Автор Размер S L Добавлен
Документальные фильмы и телепередачи ·· Т-34: Победа России / T-34: Russian Victory [2001, Документальный фильм, TVRip] Galfimbul 369548378352 MB 0 0 1498328037

21:13

24-Июн-17

Российские фильмы 2016-2018 (Новинки русского кино) ·%· Т-34 (2018) BDRip-AVC от HELLYWOOD | Лицензия Galfimbul 15672736141.46 GB 2 0 1554397870

20:11

4-Апр-19

Российские фильмы 2016-2018 (Новинки русского кино) ·%· Т-34 (2018) BDRip 720p от HELLYWOOD | Лицензия Galfimbul 61845664385.76 GB 0 0 1554347428

06:10

4-Апр-19

Российские фильмы 2016-2018 (Новинки русского кино) ·%· Т-34 (2018) HDRip-AVC | Лицензия Galfimbul 780575608744 MB 0 0 1554315140

21:12

3-Апр-19

Российские фильмы 2016-2018 (Новинки русского кино) ·%· Т-34 (2018) DVD5 | Лицензия Galfimbul 45192785924.21 GB 0 0 1554240629

00:30

3-Апр-19

Российские фильмы 2016-2018 (Новинки русского кино) ·%· Т-34 (2018) BDRip-HEVC 1080p от HANNIBAL | Лицензия Galfimbul 88834322498.27 GB 0 0 1554227439

20:50

2-Апр-19

Зарубежные фильмы 2016-2018 (Новинки зарубежного кино) ·%· Т-34 (2018) BDRip 720p от k.e.n & MegaPeer | Лицензия Galfimbul 46933009754.37 GB 0 0 1554183611

08:40

2-Апр-19

Российские фильмы 2016-2018 (Новинки русского кино) ·%· Т-34 (2018) BDRip | Лицензия Galfimbul 23302928782.17 GB 0 0 1553836386

08:13

29-Мар-19

Российские фильмы 2016-2018 (Новинки русского кино) ·%· Т-34 (2018) BDRip 720p | Лицензия Galfimbul 78141022607.28 GB 0 0 1553836372

08:12

29-Мар-19

Российские фильмы 2016-2018 (Новинки русского кино) ·%· Т-34 (2018) WEB-DLRip от Scarabey | iTunes Galfimbul 15546675201.45 GB 0 0 1553016613

20:30

19-Мар-19

Российские фильмы 2016-2018 (Новинки русского кино) ·%· Т-34 (2018) WEB-DLRip от Scarabey | iTunes Galfimbul 836820992798 MB 0 0 1552933221

21:20

18-Мар-19

Российские фильмы 2016-2018 (Новинки русского кино) ·%· Т-34 (2018) WEB-DLRip от Scarabey | iTunes Galfimbul 23354839042.18 GB 0 0 1552929632

20:20

18-Мар-19

Российские фильмы 2016-2018 (Новинки русского кино) ·%· Т-34 (2018) WEB-DLRip-AVC от OlLanDGroup | iTunes Galfimbul 22678821212.11 GB 0 0 1552739453

15:30

16-Мар-19

Российские фильмы 2016-2018 (Новинки русского кино) ·%· Т-34 (2018) WEB-DLRip от MegaPeer | iTunes Galfimbul 15682129921.46 GB 0 0 1552733465

13:51

16-Мар-19

Российские фильмы 2016-2018 (Новинки русского кино) ·%· Т-34 (2018) WEB-DLRip от MegaPeer | iTunes Galfimbul 833902592795 MB 0 0 1552733443

13:50

16-Мар-19

Российские фильмы 2016-2018 (Новинки русского кино) ·%· Т-34 (2018) WEB-DLRip от MegaPeer | iTunes Galfimbul 23438274562.18 GB 0 0 1552724424

11:20

16-Мар-19

Российские фильмы 2016-2018 (Новинки русского кино) ·%· Т-34 (2018) WEB-DL 1080p | iTunes Galfimbul 51369225604.78 GB 0 0 1552696217

03:30

16-Мар-19

Российские фильмы 2016-2018 (Новинки русского кино) ·%· Т-34 (2018) WEBRip 720p Galfimbul 35161833653.27 GB 2 0 1549255811

07:50

4-Фев-19

Российские фильмы 2016-2018 (Новинки русского кино) ·%· Т-34 (2018) WEBRip-AVC Galfimbul 22869815162.13 GB 0 0 1549211411

19:30

3-Фев-19

Еще никто не оставлял запись к записи скачать торрент Т-34 . Будь первым!

!Обратная связь