Скачать через торрент Т-34 Фильм бесплатно в хорошем качестве torrent

Скачивайте на UnionPeer.org фильмы через торрент без регистрации. Новинки кино в хорошем качестве через торрент. На UnionPeer.org можно скачать через торрент фильмы 2014 и 2015 годов. Самые новые фильмы.

Скачать торрент Т-34 бесплатно через .torrent фильм мультфильм сериал

Статистика раздачи
Размер:  744 MB   |    Зарегистрирован:  7 месяцев   |    .torrent скачан:  41 раз   |   
Раздают:  1  
 

Скачать Т-34 (2018) HDRip-AVC | Лицензия через torrent

 
загрузка...
 
Автор Сообщение

Galfimbul

avatar Galfimbul


Название: Т-34
Год выпуска: 2018
Жанр: Драма, военный, приключения, ВОВ
Режиссер: Алексей Сидоров
В ролях: Александр Петров (II), Виктор Добронравов, Ирина Старшенбаум, Винценц Кифер, Петр Скворцов, Семён Трескунов, Артём Быстров, Антон Богданов, Василий Уриевский, Василий Буткевич

О фильме:
Во времена величайших испытаний человечества, когда от каждого действия зависят жизни любимых, два заклятых врага начнут свое противостояние. Оказавшись в плену, вчерашний курсант Ивушкин планирует дерзкий побег. Он собирает свой экипаж и на легендарной «тридцатьчетверке» бросает вызов немецким танковым асам во главе с Ягером. Ради своей любви и Родины он готов идти до конца.


Страна: Россия
Студия: Марс Медиа, Амедиа Продакшн
Продолжительность: 02:19:08
Язык: Русский | Лицензия BD RUS
Субтитры: Russian, English

Файл
Формат: MKV
Качество: HDRip-AVC
Видео: x264, 726x304, 24 fps, ~682 Kbps
Аудио: AAC, 2 ch, ~64 Kbps
Формат субтитров: softsub (SRT)

***Релиз от: -=DoMiNo=-
General
Unique ID : 291462367799310751145587773959304287853 (0xDB459C34CCE5B74464CA086DF992966D)
Complete name : T-34.(2018).HDRip-AVC.[-=DoMiNo=-].mkv
Format : Matroska
Format version : Version 4
File size : 744 MiB
Duration : 2 h 19 min
Overall bit rate : 748 kb/s
Movie name : Т-34 (2018)
Encoded date : UTC 2019-04-03 18:02:37
Writing application : mkvmerge v32.0.0 ('Astral Progressions') 64-bit
Writing library : libebml v1.3.7 + libmatroska v1.5.0
Attachments : poster

Video
ID : 1
Format : AVC
Format/Info : Advanced Video Codec
Format profile : High@L4.1
Format settings : CABAC / 14 Ref Frames
Format settings, CABAC : Yes
Format settings, ReFrames : 14 frames
Codec ID : V_MPEG4/ISO/AVC
Duration : 2 h 19 min
Bit rate : 682 kb/s
Width : 726 pixels
Height : 304 pixels
Display aspect ratio : 2.40:1
Frame rate mode : Constant
Frame rate : 24.000 FPS
Color space : YUV
Chroma subsampling : 4:2:0
Bit depth : 8 bits
Scan type : Progressive
Bits/(Pixel*Frame) : 0.129
Stream size : 678 MiB (91%)
Title : RIP_BY_-=DoMiNo=-
Writing library : x264 core 157 r2969 d4099dd
Encoding settings : cabac=1 / ref=14 / deblock=1:-2:-2 / analyse=0x3:0x133 / me=umh / subme=11 / psy=1 / psy_rd=1.05:0.15 / mixed_ref=1 / me_range=48 / chroma_me=1 / trellis=2 / 8x8dct=1 / cqm=0 / deadzone=21,11 / fast_pskip=0 / chroma_qp_offset=-3 / threads=6 / lookahead_threads=1 / sliced_threads=0 / nr=0 / decimate=1 / interlaced=0 / bluray_compat=0 / constrained_intra=0 / bframes=12 / b_pyramid=2 / b_adapt=2 / b_bias=0 / direct=3 / weightb=1 / open_gop=0 / weightp=2 / keyint=250 / keyint_min=24 / scenecut=40 / intra_refresh=0 / rc_lookahead=250 / rc=2pass / mbtree=0 / bitrate=682 / ratetol=1.0 / qcomp=0.70 / qpmin=0 / qpmax=69 / qpstep=4 / cplxblur=20.0 / qblur=0.5 / vbv_maxrate=50000 / vbv_bufsize=62500 / nal_hrd=none / filler=0 / ip_ratio=1.40 / pb_ratio=1.30 / aq=3:0.90
Language : Russian
Default : Yes
Forced : No
Color range : Limited
Color primaries : BT.709
Transfer characteristics : BT.709
Matrix coefficients : BT.709

Audio
ID : 2
Format : AAC LC
Format/Info : Advanced Audio Codec Low Complexity
Codec ID : A_AAC-2
Duration : 2 h 19 min
Bit rate : 64.0 kb/s
Channel(s) : 2 channels
Channel layout : L R
Sampling rate : 48.0 kHz
Frame rate : 46.875 FPS (1024 SPF)
Compression mode : Lossy
Stream size : 63.7 MiB (9%)
Title : Лицензия BD RUS
Language : Russian
Default : Yes
Forced : No

Text #1
ID : 3
Format : UTF-8
Codec ID : S_TEXT/UTF8
Codec ID/Info : UTF-8 Plain Text
Duration : 2 h 11 min
Bit rate : 48 b/s
Count of elements : 970
Stream size : 46.3 KiB (0%)
Title : RUS
Language : Russian
Default : No
Forced : No

Text #2
ID : 4
Format : UTF-8
Codec ID : S_TEXT/UTF8
Codec ID/Info : UTF-8 Plain Text
Duration : 2 h 7 min
Bit rate : 32 b/s
Count of elements : 1019
Stream size : 30.6 KiB (0%)
Title : ENG
Language : English
Default : No
Forced : No

Menu
00:00:00.000 : :Chapter 01
00:01:17.875 : :Chapter 02
00:12:31.250 : :Chapter 03
00:24:54.041 : :Chapter 04
00:35:06.916 : :Chapter 05
00:49:36.291 : :Chapter 06
01:03:21.041 : :Chapter 07
01:17:58.583 : :Chapter 08
01:30:55.458 : :Chapter 09
01:46:42.666 : :Chapter 10
02:03:33.916 : :Chapter 11
Источник http://BlaTor.org

Трекер:  [ 03-Апр-2019 21:10 ]

  

Скачать .torrent

Размер .torrent файла 15 KB


Размер: 744 MB
Хэш (hash) релиза: b8fd38b9633fecc96d1a1b53f07baf1824ba0ede
Подписка на обновления:

Торренты, похожие на Т-34 скачать торрент

Форум Название Автор Размер S L Добавлен
Документальные фильмы и телепередачи ·· Т-34: Победа России / T-34: Russian Victory [2001, Документальный фильм, TVRip] Galfimbul 369548378352 MB 0 0 1498328037

21:13

24-Июн-17

Российские фильмы 2016-2018 (Новинки русского кино) ·%· Т-34 (2018) BDRip-AVC от HELLYWOOD | Лицензия Galfimbul 15672736141.46 GB 2 0 1554397870

20:11

4-Апр-19

Российские фильмы 2016-2018 (Новинки русского кино) ·%· Т-34 (2018) BDRip 720p от HELLYWOOD | Лицензия Galfimbul 61845664385.76 GB 0 0 1554347428

06:10

4-Апр-19

Российские фильмы 2016-2018 (Новинки русского кино) ·%· Т-34 (2018) DVD5 | Лицензия Galfimbul 45192785924.21 GB 0 0 1554240629

00:30

3-Апр-19

Российские фильмы 2016-2018 (Новинки русского кино) ·%· Т-34 (2018) BDRip-HEVC 1080p от HANNIBAL | Лицензия Galfimbul 88834322498.27 GB 0 0 1554227439

20:50

2-Апр-19

Зарубежные фильмы 2016-2018 (Новинки зарубежного кино) ·%· Т-34 (2018) BDRip 720p от k.e.n & MegaPeer | Лицензия Galfimbul 46933009754.37 GB 0 0 1554183611

08:40

2-Апр-19

Российские фильмы 2016-2018 (Новинки русского кино) ·%· Т-34 (2018) HDRip от Portablius | Лицензия Galfimbul 836939776798 MB 0 0 1553940028

13:00

30-Мар-19

Российские фильмы 2016-2018 (Новинки русского кино) ·%· Т-34 (2018) BDRip | Лицензия Galfimbul 23302928782.17 GB 0 0 1553836386

08:13

29-Мар-19

Российские фильмы 2016-2018 (Новинки русского кино) ·%· Т-34 (2018) BDRip 720p | Лицензия Galfimbul 78141022607.28 GB 0 0 1553836372

08:12

29-Мар-19

Российские фильмы 2016-2018 (Новинки русского кино) ·%· Т-34 (2018) WEB-DLRip от Scarabey | iTunes Galfimbul 15546675201.45 GB 0 0 1553016613

20:30

19-Мар-19

Российские фильмы 2016-2018 (Новинки русского кино) ·%· Т-34 (2018) WEB-DLRip от Scarabey | iTunes Galfimbul 836820992798 MB 0 0 1552933221

21:20

18-Мар-19

Российские фильмы 2016-2018 (Новинки русского кино) ·%· Т-34 (2018) WEB-DLRip от Scarabey | iTunes Galfimbul 23354839042.18 GB 0 0 1552929632

20:20

18-Мар-19

Российские фильмы 2016-2018 (Новинки русского кино) ·%· Т-34 (2018) WEB-DLRip-AVC от OlLanDGroup | iTunes Galfimbul 22678821212.11 GB 0 0 1552739453

15:30

16-Мар-19

Российские фильмы 2016-2018 (Новинки русского кино) ·%· Т-34 (2018) WEB-DLRip от MegaPeer | iTunes Galfimbul 15682129921.46 GB 0 0 1552733465

13:51

16-Мар-19

Российские фильмы 2016-2018 (Новинки русского кино) ·%· Т-34 (2018) WEB-DLRip от MegaPeer | iTunes Galfimbul 833902592795 MB 0 0 1552733443

13:50

16-Мар-19

Российские фильмы 2016-2018 (Новинки русского кино) ·%· Т-34 (2018) WEB-DLRip от MegaPeer | iTunes Galfimbul 23438274562.18 GB 0 0 1552724424

11:20

16-Мар-19

Российские фильмы 2016-2018 (Новинки русского кино) ·%· Т-34 (2018) WEB-DL 1080p | iTunes Galfimbul 51369225604.78 GB 0 0 1552696217

03:30

16-Мар-19

Российские фильмы 2016-2018 (Новинки русского кино) ·%· Т-34 (2018) WEBRip 720p Galfimbul 35161833653.27 GB 2 0 1549255811

07:50

4-Фев-19

Российские фильмы 2016-2018 (Новинки русского кино) ·%· Т-34 (2018) WEBRip-AVC Galfimbul 22869815162.13 GB 0 0 1549211411

19:30

3-Фев-19

Еще никто не оставлял запись к записи скачать торрент Т-34 . Будь первым!

!Обратная связь