Скачать через торрент Астерикс и тайное зелье Asterix: Le secret de la potion magique Фильм бесплатно в хорошем качестве torrent

Скачивайте на UnionPeer.org фильмы через торрент без регистрации. Новинки кино в хорошем качестве через торрент. На UnionPeer.org можно скачать через торрент фильмы 2014 и 2015 годов. Самые новые фильмы.

Скачать торрент Астерикс и тайное зелье Asterix: Le secret de la potion magique бесплатно через .torrent фильм мультфильм сериал

Статистика раздачи
Размер:  6.78 GB   |    Зарегистрирован:  3 месяца 10 дней   |    .torrent скачан:  180 раз   |   
Раздают:  1  
   
загрузка...
 
Автор Сообщение

Galfimbul

avatar Galfimbul


Название: Астерикс и тайное зелье
Оригинальное название: Ast?rix: Le secret de la potion magique
Год выхода: 2018
Жанр: мультфильм, фэнтези
Режиссер: Александр Астье, Луи Клиши
Роли озвучивали: Иван Калинин, Алексей Колган, Евгений Толоконников, Александр Скиданов, Олег Зима, Игорь Ясулович, Владимир Паляница

О фильме:
Могучие галлы издревле черпали силу в секретном напитке, который готовил великий старец. Но пришла беда, откуда не ждали - почтенный друид свалился с дерева и сломал обе ноги. Теперь Астериксу и Обеликсу предстоит отправиться в опасное путешествие, чтобы отыскать нового друида, достойного постичь рецепт тайного зелья.


Выпущено: Франция / Canal+ [fr], Centre National de la Cin?matographie (CNC), Les Editions Albert Ren?, M6, M6 Films, M6 Studio, Mikros Image, OCS, R?gion Ile-de-France, W9
Продолжительность: 01:24:55
Озвучивание: Дублированное [iTunes]

Файл
Формат: MKV
Качество: BDRip 1080p
Видео: x264, ~9545 Кb/s, 1920x808, 24.000 fps
Аудио: Russian: AC3, 384 Kb/s (6 ch)
Аудио: French: DTS, 1510 Kb/s (6 ch)
Субтитры: Нет
Дополнительно: Сохранены оригинальные чаптеры.
General
Unique ID : 51102278289541864958191547593041394311 (0x2671F0D82A5E86F680BBDD1DCA083A87)
Complete name : Астерикс и тайное зелье.2018.BDRip.1080p.mkv
Format : Matroska
Format version : Version 4
File size : 6.78 GiB
Duration : 1 h 24 min
Overall bit rate : 11.4 Mb/s
Encoded date : UTC 2019-04-05 00:15:37
Writing application : mkvmerge v28.0.0 ('Voice In My Head') 64-bit
Writing library : libebml v1.3.6 + libmatroska v1.4.9

Video
ID : 1
Format : AVC
Format/Info : Advanced Video Codec
Format profile : High@L4.1
Format settings : CABAC / 5 Ref Frames
Format settings, CABAC : Yes
Format settings, ReFrames : 5 frames
Codec ID : V_MPEG4/ISO/AVC
Duration : 1 h 24 min
Bit rate : 9 545 kb/s
Width : 1 920 pixels
Height : 808 pixels
Display aspect ratio : 2.40:1
Frame rate mode : Constant
Frame rate : 24.000 FPS
Color space : YUV
Chroma subsampling : 4:2:0
Bit depth : 8 bits
Scan type : Progressive
Bits/(Pixel*Frame) : 0.256
Stream size : 5.53 GiB (81%)
Writing library : x264 core 157 r2969 d4099dd
Encoding settings : cabac=1 / ref=5 / deblock=1:0:0 / analyse=0x3:0x113 / me=umh / subme=8 / psy=1 / psy_rd=1.00:0.00 / mixed_ref=1 / me_range=16 / chroma_me=1 / trellis=1 / 8x8dct=1 / cqm=0 / deadzone=21,11 / fast_pskip=1 / chroma_qp_offset=-2 / threads=18 / lookahead_threads=3 / sliced_threads=0 / nr=0 / decimate=1 / interlaced=0 / bluray_compat=0 / constrained_intra=0 / bframes=3 / b_pyramid=2 / b_adapt=2 / b_bias=0 / direct=3 / weightb=1 / open_gop=0 / weightp=2 / keyint=240 / keyint_min=24 / scenecut=40 / intra_refresh=0 / rc_lookahead=50 / rc=2pass / mbtree=1 / bitrate=9545 / ratetol=1.0 / qcomp=0.60 / qpmin=0 / qpmax=69 / qpstep=4 / cplxblur=20.0 / qblur=0.5 / ip_ratio=1.40 / aq=1:1.00
Language : French
Default : Yes
Forced : No

Audio #1
ID : 2
Format : AC-3
Format/Info : Audio Coding 3
Commercial name : Dolby Digital
Codec ID : A_AC3
Duration : 1 h 24 min
Bit rate mode : Constant
Bit rate : 384 kb/s
Channel(s) : 6 channels
Channel layout : L R C LFE Ls Rs
Sampling rate : 48.0 kHz
Frame rate : 31.250 FPS (1536 SPF)
Bit depth : 16 bits
Compression mode : Lossy
Stream size : 233 MiB (3%)
Language : Russian
Service kind : Complete Main
Default : Yes
Forced : No

Audio #2
ID : 3
Format : DTS
Format/Info : Digital Theater Systems
Codec ID : A_DTS
Duration : 1 h 24 min
Bit rate mode : Constant
Bit rate : 1 509 kb/s
Channel(s) : 6 channels
Channel layout : C L R Ls Rs LFE
Sampling rate : 48.0 kHz
Frame rate : 93.750 FPS (512 SPF)
Bit depth : 24 bits
Compression mode : Lossy
Stream size : 917 MiB (13%)
Title : French DTS 1509kbps
Language : French
Default : No
Forced : No

Menu
00:00:00.000 : en:00:00:00.000
00:06:16.042 : en:00:06:16.042
00:15:43.250 : en:00:15:43.250
00:21:45.167 : en:00:21:45.167
00:28:47.792 : en:00:28:47.792
00:35:00.000 : en:00:35:00.000
00:42:39.458 : en:00:42:39.458
00:50:30.333 : en:00:50:30.333
00:57:33.708 : en:00:57:33.708
01:04:05.458 : en:01:04:05.458
01:13:32.000 : en:01:13:32.000
01:21:07.333 : en:01:21:07.333
Источник http://BlaTor.org

Трекер:  [ 05-Апр-2019 16:40 ]

  

Скачать .torrent

Размер .torrent файла 68 KB


Размер: 6.78 GB
Хэш (hash) релиза: c4c2ce7f2f9bc02d35e107acbb013f421f5176a6
Подписка на обновления:

Торренты, похожие на Астерикс и тайное зелье Asterix: Le secret de la potion magique скачать торрент

Форум Название Автор Размер S L Добавлен
Мультфильмы 2016-2018 (Новинки мультфильмов) ·%· Астерикс и тайное зелье / Asterix: Le secret de la potion magique (2018) UHD BDRemux 2160p от селезень | 4K | HDR | iTunes Galfimbul 4436913560941.32 GB 0 0 1554701425

08:30

8-Апр-19

Мультфильмы 2016-2018 (Новинки мультфильмов) ·%· Астерикс и тайное зелье / Asterix: Le secret de la potion magique (2018) HDRip от Portablius | iTunes Galfimbul 781957120746 MB 0 0 1554553838

15:30

6-Апр-19

Мультфильмы 2016-2018 (Новинки мультфильмов) ·%· Астерикс и тайное зелье / Asterix: Le secret de la potion magique (2018) BDRip 720p от селезень | iTunes Galfimbul 39299193383.66 GB 0 0 1554538246

11:10

6-Апр-19

Мультфильмы 2016-2018 (Новинки мультфильмов) ·%· Астерикс и тайное зелье / Asterix: Le secret de la potion magique (2018) BDRemux 1080p от селезень | 3D-Video | iTunes Galfimbul 2329935872021.7 GB 0 0 1554525038

07:30

6-Апр-19

Мультфильмы 2016-2018 (Новинки мультфильмов) ·%· Астерикс и тайное зелье / Asterix: Le secret de la potion magique (2018) BDRip 1080p от селезень | iTunes Galfimbul 77483269687.22 GB 0 0 1554525027

07:30

6-Апр-19

Мультфильмы 2016-2018 (Новинки мультфильмов) ·%· Астерикс и тайное зелье / Asterix: Le secret de la potion magique (2018) BDRemux 1080p от селезень | iTunes Galfimbul 2191860667720.41 GB 0 0 1554519016

05:50

6-Апр-19

Мультфильмы 2016-2018 (Новинки мультфильмов) ·%· Астерикс и тайное зелье / Asterix: Le secret de la potion magique (2018) HDRip от Generalfilm | КПК | iTunes Galfimbul 337821638322 MB 0 0 1554486017

20:40

5-Апр-19

Еще никто не оставлял запись к записи скачать торрент Астерикс и тайное зелье Asterix: Le secret de la potion magique . Будь первым!

!Обратная связь