Скачать через торрент Астерикс и тайное зелье Ast?rix: Le secret de la potion magique Фильм бесплатно в хорошем качестве torrent

Скачивайте на UnionPeer.org фильмы через торрент без регистрации. Новинки кино в хорошем качестве через торрент. На UnionPeer.org можно скачать через торрент фильмы 2014 и 2015 годов. Самые новые фильмы.

Скачать торрент Астерикс и тайное зелье Ast?rix: Le secret de la potion magique бесплатно через .torrent фильм мультфильм сериал

Статистика раздачи
Размер:  1.46 GB   |    Зарегистрирован:  3 месяца 10 дней   |    .torrent скачан:  154 раза   |   
Раздают:  1  
   
загрузка...
 
Автор Сообщение

Galfimbul

avatar Galfimbul


Название: Астерикс и тайное зелье
Оригинальное название: Ast?rix: Le secret de la potion magique
Год выпуска: 2018
Жанр: Мультфильм, фэнтези
Режиссер: Александр Астье, Луи Клиши
В ролях: Кристиан Клавье, Гийом Бриа, Алекс Лутс, Александр Астье, Эли Семун, Даниэль Месгиш, Бернар Алан, Франсуа Морель, Лионель Астье, Флоренс Форести
Роли озвучивали: Иван Калинин, Алексей Колган, Евгений Толоконников, Александр Скиданов, Олег Зима, Игорь Ясулович, Владимир Паляница

Описание: Могучие галлы издревле черпали силу в секретном напитке, который готовил великий старец. Но пришла беда, откуда не ждали - почтенный друид свалился с дерева и сломал обе ноги. Теперь Астериксу и Обеликсу предстоит отправиться в опасное путешествие, чтобы отыскать нового друида, достойного постичь рецепт тайного зелья.



Страна: Франция
Производство: M6 Studio, M6 Films, Les Editions Albert Ren?
Продолжительность: 01:24:55
Перевод: Профессиональный (дублированный) | iTunes

Файл
Качество: HDRip
Формат: AVI
Видео: 720x304 (2.37:1), 24.000 fps, XviD build 73 ~2061 kbps avg, 0.39 bit/pixel
Аудио: 48 kHz, AC3 Dolby Digital, 3/2 (L,C,R,l,r) + LFE ch, ~384 kbps
Субтитры: Нет
Формат : AVI
Формат/Информация : Audio Video Interleave
Размер файла : 1,46 Гбайт
Продолжительность : 1 ч. 24 м.
Общий поток : 2454 Кбит/сек
Программа кодирования : VirtualDubMod 1.5.10.3
Библиотека кодирования : VirtualDubMod build 2550/release

Видео
Идентификатор : 0
Формат : MPEG-4 Visual
Профиль формата : Advanced Simple@L5
Настройки формата : BVOP1 / Custom Matrix
Параметр BVOP формата : 1
Параметр QPel формата : Нет
Параметр GMC формата : Без точки перехода
Параметр матрицы формата : Выборочная
Идентификатор кодека : XVID
Идентификатор кодека/Подсказка : XviD
Продолжительность : 1 ч. 24 м.
Битрейт : 2061 Кбит/сек
Ширина : 720 пикселей
Высота : 304 пикселя
Соотношение сторон : 2,35:1
Частота кадров : 24,000 кадра/сек
Цветовое пространство : YUV
Субдискретизация насыщенности : 4:2:0
Битовая глубина : 8 бит
Тип развёртки : Прогрессивная
Метод сжатия : С потерями
Бит/(Пиксели*Кадры) : 0.392
Размер потока : 1,22 Гбайт (84%)
Библиотека кодирования : XviD 73

Аудио
Идентификатор : 1
Формат : AC-3
Формат/Информация : Audio Coding 3
Коммерческое название : Dolby Digital
Идентификатор кодека : 2000
Продолжительность : 1 ч. 24 м.
Вид битрейта : Постоянный
Битрейт : 384 Кбит/сек
Каналы : 6 каналов
Channel layout : L R C LFE Ls Rs
Частота : 48,0 КГц
Частота кадров : 31,250 кадров/сек (1536 SPF)
Битовая глубина : 16 бит
Метод сжатия : С потерями
Размер потока : 233 Мбайт (16%)
Выравнивание : Разделение по промежуткам
Продолжительность промежутка : 42 мс. (1,00 видеокадр)
Время предзагрузки промежутка : 500 мс.
Источник http://BlaTor.org

Трекер:  [ 05-Апр-2019 20:40 ]

  

Скачать .torrent

Размер .torrent файла 15 KB


Размер: 1.46 GB
Хэш (hash) релиза: 64b77b12450cf71f7fd0432f93c12f6bf4c6811f
Подписка на обновления:

Торренты, похожие на Астерикс и тайное зелье Ast?rix: Le secret de la potion magique скачать торрент

Форум Название Автор Размер S L Добавлен
Мультфильмы 2016-2018 (Новинки мультфильмов) ·%· Астерикс и тайное зелье / Ast?rix: Le secret de la potion magique (2018) HDRip от Scarabey | iTunes Galfimbul 15091978241.41 GB 0 0 1554745893

20:51

8-Апр-19

Мультфильмы 2016-2018 (Новинки мультфильмов) ·%· Астерикс и тайное зелье / Ast?rix: Le secret de la potion magique (2018) BDRip от ExKinoRay | iTunes Galfimbul 15275793241.42 GB 0 0 1554745882

20:51

8-Апр-19

Мультфильмы 2016-2018 (Новинки мультфильмов) ·%· Астерикс и тайное зелье / Ast?rix: Le secret de la potion magique (2018) BDRip 1080p от Ash61 | 3D-Video | halfOU | iTunes Galfimbul 53593106214.99 GB 0 0 1554576616

21:50

6-Апр-19

Мультфильмы 2016-2018 (Новинки мультфильмов) ·%· Астерикс и тайное зелье / Ast?rix: Le secret de la potion magique (2018) BDRip-AVC от HELLYWOOD | iTunes Galfimbul 15299986021.42 GB 0 0 1554555098

15:51

6-Апр-19

Мультфильмы 2016-2018 (Новинки мультфильмов) ·%· Астерикс и тайное зелье / Ast?rix: Le secret de la potion magique (2018) BDRip-AVC от HELLYWOOD | iTunes Galfimbul 22996800912.14 GB 0 0 1554541835

12:10

6-Апр-19

Мультфильмы 2016-2018 (Новинки мультфильмов) ·%· Астерикс и тайное зелье / Ast?rix: Le secret de la potion magique (2018) BDRip от MegaPeer | iTunes Galfimbul 15271383041.42 GB 0 0 1554538235

11:10

6-Апр-19

Еще никто не оставлял запись к записи скачать торрент Астерикс и тайное зелье Ast?rix: Le secret de la potion magique . Будь первым!

!Обратная связь