Скачать через торрент Время монстров The Head Hunter Фильм бесплатно в хорошем качестве torrent

Скачивайте на UnionPeer.org фильмы через торрент без регистрации. Новинки кино в хорошем качестве через торрент. На UnionPeer.org можно скачать через торрент фильмы 2014 и 2015 годов. Самые новые фильмы.

Скачать торрент Время монстров The Head Hunter бесплатно через .torrent фильм мультфильм сериал

Статистика раздачи
Размер:  1.37 GB   |    Зарегистрирован:  3 месяца 10 дней   |    .torrent скачан:  177 раз   |   
Раздают:  1  
   
загрузка...
 
Автор Сообщение

Galfimbul

avatar Galfimbul


Название: Время монстров
Оригинальное название: The Head Hunter
Год выхода: 2018
Жанр: Ужасы, фэнтези
Режиссер: Джордан Дауни
В ролях: Кристофер Рай, Кора Кауфман

Описание: Средневековый воин живёт отшельником в мрачном лесу и жаждет отомстить смертельно опасному существу за гибель своей единственной дочери. Получая от короля сведения о появляющихся в округе монстрах, он отправляется за их головами, каждый раз надеясь, что встретит своего заклятого врага.



Страна: США
Продолжительность: 01:11:57
Перевод: Авторский одноголосый | А. Важенин (BadBajo)
Субтитры: Английские

БЕЗ КАКОЙ-ЛИБО РЕКЛАМЫ!

Формат: MKV
Качество: WEB-DLRip-AVC
Видео: MPEG-4 AVC, 1024x576 (16:9), 23.976 fps, 1950 Kbps, 0.138 bit/pixel
Аудио #01: 48 kHz, AC3, 5.1, 384 Kbps | Важенин | RUS |
Аудио #02: 48 kHz, AC3, 5.1, 384 Kbps | Оригинал | ENG |
General
Unique ID : 213320415002746092897840106166600474334 (0xA07C047AE62596819FF04733C2BA1EDE)
Complete name : D:The Head Hunter.2019.AVO.BadBajo.WEB-DLRip.AVC.ExKinoRay.mkv
Format : Matroska
Format version : Version 2
File size : 1.37 GiB
Duration : 1 h 11 min
Overall bit rate : 2 718 kb/s
Movie name : The Head Hunter 2019 from ExKinoRay
Encoded date : UTC 2019-04-06 01:10:19
Writing application : mkvmerge v5.6.0 ('Kenya Kane') built on May 27 2012 16:44:04
Writing library : libebml v1.2.3 + libmatroska v1.3.0

Video
ID : 1
Format : AVC
Format/Info : Advanced Video Codec
Format profile : High@L4.1
Format settings, CABAC : Yes
Format settings, ReFrames : 11 frames
Codec ID : V_MPEG4/ISO/AVC
Duration : 1 h 11 min
Bit rate : 1 950 kb/s
Width : 1 024 pixels
Height : 576 pixels
Display aspect ratio : 16:9
Frame rate mode : Constant
Frame rate : 23.976 (23976/1000) FPS
Color space : YUV
Chroma subsampling : 4:2:0
Bit depth : 8 bits
Scan type : Progressive
Bits/(Pixel*Frame) : 0.138
Stream size : 976 MiB (70%)
Title : Enigma
Writing library : x264 core 152 r2851 ba24899
Encoding settings : cabac=1 / ref=11 / deblock=1:-2:-2 / analyse=0x3:0x113 / me=umh / subme=10 / psy=1 / psy_rd=1.05:0.07 / mixed_ref=1 / me_range=32 / chroma_me=1 / trellis=2 / 8x8dct=1 / cqm=0 / deadzone=21,11 / fast_pskip=0 / chroma_qp_offset=-3 / threads=12 / lookahead_threads=3 / sliced_threads=0 / nr=0 / decimate=0 / interlaced=0 / bluray_compat=0 / constrained_intra=0 / bframes=10 / b_pyramid=2 / b_adapt=2 / b_bias=0 / direct=3 / weightb=1 / open_gop=0 / weightp=2 / keyint=240 / keyint_min=23 / scenecut=40 / intra_refresh=0 / rc_lookahead=40 / rc=2pass / mbtree=1 / bitrate=1950 / ratetol=1.0 / qcomp=0.60 / qpmin=0 / qpmax=51 / qpstep=4 / cplxblur=20.0 / qblur=0.5 / ip_ratio=1.30 / aq=1:1.00
Language : English
Default : Yes
Forced : No
Color range : Limited
Color primaries : BT.709
Transfer characteristics : BT.709
Matrix coefficients : BT.709

Audio #1
ID : 2
Format : AC-3
Format/Info : Audio Coding 3
Mode extension : CM (complete main)
Format settings, Endianness : Big
Codec ID : A_AC3
Duration : 1 h 11 min
Bit rate mode : Constant
Bit rate : 384 kb/s
Channel(s) : 6 channels
Channel positions : Front: L C R, Side: L R, LFE
Sampling rate : 48.0 kHz
Frame rate : 31.250 FPS (1536 spf)
Compression mode : Lossy
Stream size : 198 MiB (14%)
Title : AVO (BadBajo)
Language : Russian
Default : Yes
Forced : No

Audio #2
ID : 3
Format : AC-3
Format/Info : Audio Coding 3
Mode extension : CM (complete main)
Format settings, Endianness : Big
Codec ID : A_AC3
Duration : 1 h 11 min
Bit rate mode : Constant
Bit rate : 384 kb/s
Channel(s) : 6 channels
Channel positions : Front: L C R, Side: L R, LFE
Sampling rate : 48.0 kHz
Frame rate : 31.250 FPS (1536 spf)
Compression mode : Lossy
Stream size : 198 MiB (14%)
Language : English
Default : No
Forced : No

Text
ID : 4
Format : UTF-8
Codec ID : S_TEXT/UTF8
Codec ID/Info : UTF-8 Plain Text
Language : English
Default : No
Forced : No

Menu
00:00:00.000 : en:1
00:06:15.000 : en:2
00:14:16.000 : en:3
00:21:14.000 : en:4
00:28:07.000 : en:5
00:33:52.000 : en:6
00:40:57.000 : en:7
00:46:34.000 : en:8
00:53:20.000 : en:9
00:58:19.000 : en:10
01:04:41.000 : en:11
01:08:08.000 : en:12


Автор релиза:
Источник http://BlaTor.org

Трекер:  [ 06-Апр-2019 05:20 ]

  

Скачать .torrent

Размер .torrent файла 14 KB


Размер: 1.37 GB
Хэш (hash) релиза: 8199e12ff3973a0e67e17974b7db4b8e96c8cc27
Подписка на обновления:

Торренты, похожие на Время монстров The Head Hunter скачать торрент

Форум Название Автор Размер S L Добавлен
Зарубежные фильмы 2016-2018 (Новинки зарубежного кино) ·%· Время монстров / The Head Hunter (2018) BDRip от Twister & ExKinoRay | iTunes Galfimbul 15317012481.43 GB 0 0 1560670218

10:30

16-Июн-19

Зарубежные фильмы 2016-2018 (Новинки зарубежного кино) ·%· Время монстров / The Head Hunter (2018) BDRip-AVC от ExKinoRay | iTunes Galfimbul 780890676745 MB 0 0 1560487225

07:40

14-Июн-19

Зарубежные фильмы 2016-2018 (Новинки зарубежного кино) ·%· Время монстров / The Head Hunter (2018) BDRip-AVC | iTunes Galfimbul 15070199661.4 GB 0 0 1560483703

06:41

14-Июн-19

Зарубежные фильмы 2016-2018 (Новинки зарубежного кино) ·%· Время монстров / The Head Hunter (2018) HDRip от Portablius | iTunes Galfimbul 779345920743 MB 2 0 1560483641

06:40

14-Июн-19

Зарубежные фильмы 2016-2018 (Новинки зарубежного кино) ·%· Время монстров / The Head Hunter (2018) BDRip от MegaPeer | iTunes Galfimbul 11687587841.09 GB 0 0 1560427213

15:00

13-Июн-19

Зарубежные фильмы 2016-2018 (Новинки зарубежного кино) ·%· Время монстров / The Head Hunter (2018) BDRip 720p от селезень | iTunes Galfimbul 43566675584.06 GB 0 0 1560424863

14:21

13-Июн-19

Зарубежные фильмы 2016-2018 (Новинки зарубежного кино) ·%· Время монстров / The Head Hunter (2018) BDRip 1080p от селезень | iTunes Galfimbul 79454009057.4 GB 0 0 1560415289

11:41

13-Июн-19

Зарубежные фильмы 2016-2018 (Новинки зарубежного кино) ·%· Время монстров / The Head Hunter (2018) BDRemux 1080p от селезень | iTunes Galfimbul 1757369473616.37 GB 0 0 1560382230

02:30

13-Июн-19

Зарубежные фильмы 2016-2018 (Новинки зарубежного кино) ·%· Время монстров / The Head Hunter (2018) WEB-DLRip-AVC от ExKinoRay | HDRezka Studio Galfimbul 13976125171.3 GB 0 0 1555908011

07:40

22-Апр-19

Зарубежные фильмы 2016-2018 (Новинки зарубежного кино) ·%· Время монстров / The Head Hunter (2018) WEB-DLRip от k.e.n & MegaPeer | Яроцкий Galfimbul 15637811201.46 GB 0 0 1555072809

15:40

12-Апр-19

Зарубежные фильмы 2016-2018 (Новинки зарубежного кино) ·%· Время монстров / The Head Hunter (2018) WEB-DLRip | BadBajo Galfimbul 15623905281.46 GB 0 0 1554476408

18:00

5-Апр-19

Зарубежные фильмы 2016-2018 (Новинки зарубежного кино) ·%· Время монстров / The Head Hunter (2018) WEB-DL 1080p l BadBajo Galfimbul 31613794842.94 GB 2 0 1554457831

12:50

5-Апр-19

Еще никто не оставлял запись к записи скачать торрент Время монстров The Head Hunter . Будь первым!

!Обратная связь