Скачать через торрент Стекло Glass Фильм бесплатно в хорошем качестве torrent

Скачивайте на UnionPeer.org фильмы через торрент без регистрации. Новинки кино в хорошем качестве через торрент. На UnionPeer.org можно скачать через торрент фильмы 2014 и 2015 годов. Самые новые фильмы.

Скачать торрент Стекло Glass бесплатно через .torrent фильм мультфильм сериал

Статистика раздачи
Размер:  2.31 GB   |    Зарегистрирован:  3 месяца 6 дней   |    .torrent скачан:  181 раз   |   
Раздают:  1  
   
загрузка...
 
Автор Сообщение

Galfimbul

avatar Galfimbul


Стекло / Glass
«Дай волю своим демонам»


Год выпуска: 2019
Страна: США
Производство: Walt Disney Pictures, Universal Pictures, Blinding Edge Pictures
Жанр: Фантастика, триллер, драма, детектив
Режиссёр: М. Найт Шьямалан
В ролях: Джеймс МакЭвой, Брюс Уиллис, Сэмюэл Л. Джексон, Сара Полсон, Аня Тейлор-Джой, Спенсер Трит Кларк, Чарлэйн Вудард, Люк Кирби, Адам Дэвид Томпсон, М. Найт Шьямалан, Шеннон Дестини Райан, Диана Сильверс, Нина Уиснер, Серж Диденко, Джейн Парк Смит, Кайли Зион, Расселл Познер, Кимберли С. Фербенкс
Перевод: Профессиональный многоголосый | [HDRezka Studio]
Субтитры: Английские (полные, SDH)
Реклама: Отсутствует

Описание: В поисках встречи с обладающим фантастическими способностями и снова убивающем девушек Зверем Дэвид Данн выходит на след Кевина Крамба. Но решающая схватка не успевает состояться, героев ловят и отправляют в психиатрическую больницу. Там уже содержится хрупкий человек Элайджа Прайс, несколько лет назад устроивший крушение поезда, единственным выжившем в котором оказался Дэвид. Психиатр Элли Стэйпл пытается убедить этих трёх пациентов, что они не обладают сверхспособностями, и всему можно найти рациональное объяснение


Качество: BDRip-AVC | BDRemux | Glass 2019 1080p BluRay REMUX AVC Atmos TrueHD7 1-iFT
Продолжительность: 02:09:01

Формат: MKV
Видео кодек: MPEG-4 AVC
Аудио кодек: AC3
Видео: 1024x428 (2.40:1), 23,976 fps, x264 ~1 785 kbps avg, 0.170 bit/pixel
Аудио #1: 48 kHz, AC3 Dolby Digital, 3/2 (L,C,R,l,r) + LFE ch, ~448.00 kbps avg | RUS (HDRezka Studio)
Аудио #2: 48 kHz, AC3 Dolby Digital, 3/2 (L,C,R,l,r) + LFE ch, ~448.00 kbps avg | ENG

***Работа со звуком: селезень
Дата премьеры (мир): 7 января 2019
Дата премьеры (РФ): 17 января 2019, «WDSSPR»
Цифровой релиз: 16 апреля 2019, «Уолт Дисней Компани СНГ»
Общее
Уникальный идентификатор : 155823528401756775404655622015973160666 (0x753A851AB74346638F245E69F53176DA)
Полное имя : F:OlLanDGroupGlass.2019.BDRip(AVC).OlLanDGroup.mkv
Формат : Matroska
Версия формата : Version 4 / Version 2
Размер файла : 2,31 Гбайт
Продолжительность : 2 ч. 9 м.
Общий поток : 2558 Кбит/сек
Название фильма : Glass (2019) #TorpedoUK#
Дата кодирования : UTC 2019-04-09 11:29:18
Программа кодирования : mkvmerge v29.0.0 ('Like It Or Not') 64-bit
Библиотека кодирования : libebml v1.3.6 + libmatroska v1.4.9

Видео
Идентификатор : 1
Формат : AVC
Формат/Информация : Advanced Video Codec
Профиль формата : High@L4.1
Параметр CABAC формата : Да
Параметр ReFrames формата : 10 кадров
Идентификатор кодека : V_MPEG4/ISO/AVC
Продолжительность : 2 ч. 9 м.
Битрейт : 1775 Кбит/сек
Ширина : 1024 пикселя
Высота : 428 пикселей
Соотношение сторон : 2,40:1
Режим частоты кадров : Постоянный
Частота кадров : 23,976 (24000/1001) кадра/сек
Цветовое пространство : YUV
Субдискретизация насыщенности : 4:2:0
Битовая глубина : 8 бит
Тип развёртки : Прогрессивная
Бит/(Пиксели*Кадры) : 0.169
Размер потока : 1,60 Гбайт (69%)
Библиотека кодирования : x264 core 146 r2538 121396c
Настройки программы : cabac=1 / ref=10 / deblock=1:-3:-3 / analyse=0x3:0x113 / me=umh / subme=11 / psy=1 / psy_rd=1.00:0.03 / mixed_ref=1 / me_range=48 / chroma_me=1 / trellis=2 / 8x8dct=1 / cqm=0 / deadzone=21,11 / fast_pskip=1 / chroma_qp_offset=-3 / threads=6 / lookahead_threads=1 / sliced_threads=0 / nr=0 / decimate=1 / interlaced=0 / bluray_compat=0 / constrained_intra=0 / bframes=11 / b_pyramid=2 / b_adapt=2 / b_bias=0 / direct=3 / weightb=1 / open_gop=0 / weightp=2 / keyint=240 / keyint_min=23 / scenecut=40 / intra_refresh=0 / rc_lookahead=40 / rc=2pass / mbtree=0 / bitrate=1775 / ratetol=1.0 / qcomp=0.60 / qpmin=0 / qpmax=69 / qpstep=4 / cplxblur=20.0 / qblur=0.5 / vbv_maxrate=50000 / vbv_bufsize=62500 / nal_hrd=none / filler=0 / ip_ratio=1.40 / pb_ratio=1.30 / aq=1:1.00
Язык : English
Default : Да
Forced : Нет

Аудио #1
Идентификатор : 2
Формат : AC-3
Формат/Информация : Audio Coding 3
Расширение режима : CM (complete main)
Параметр Endianness формата : Big
Идентификатор кодека : A_AC3
Продолжительность : 2 ч. 9 м.
Вид битрейта : Постоянный
Битрейт : 448 Кбит/сек
Каналы : 6 каналов
Расположение каналов : Front: L C R, Side: L R, LFE
Частота : 48,0 КГц
Частота кадров : 31,250 кадров/сек (1536 spf)
Битовая глубина : 16 бит
Метод сжатия : С потерями
Размер потока : 413 Мбайт (18%)
Заголовок : MVO [HDRezka Studio]
Язык : Russian
Default : Да
Forced : Нет

Аудио #2
Идентификатор : 3
Формат : AC-3
Формат/Информация : Audio Coding 3
Расширение режима : CM (complete main)
Параметр Endianness формата : Big
Идентификатор кодека : A_AC3
Продолжительность : 1 ч. 35 м.
Вид битрейта : Постоянный
Битрейт : 448 Кбит/сек
Каналы : 6 каналов
Расположение каналов : Front: L C R, Side: L R, LFE
Частота : 48,0 КГц
Частота кадров : 31,250 кадров/сек (1536 spf)
Битовая глубина : 16 бит
Метод сжатия : С потерями
Размер потока : 307 Мбайт (13%)
Заголовок : [Original]
Язык : English
Default : Нет
Forced : Нет

Текст #1
Идентификатор : 4
Формат : UTF-8
Идентификатор кодека : S_TEXT/UTF8
Идентификатор кодека/Информация : UTF-8 Plain Text
Продолжительность : 2 ч. 1 м.
Битрейт : 43 бит/сек
Count of elements : 1201
Размер потока : 38,8 Кбайт (0%)
Заголовок : Full
Язык : English
Default : Нет
Forced : Нет

Текст #2
Идентификатор : 5
Формат : UTF-8
Идентификатор кодека : S_TEXT/UTF8
Идентификатор кодека/Информация : UTF-8 Plain Text
Продолжительность : 2 ч. 2 м.
Битрейт : 52 бит/сек
Count of elements : 1565
Размер потока : 46,8 Кбайт (0%)
Заголовок : SDH
Язык : English
Default : Нет
Forced : Нет

Меню
00:00:00.000 : en:Chapter 1
00:04:08.457 : en:Chapter 2
00:09:36.367 : en:Chapter 3
00:14:30.078 : en:Chapter 4
00:19:49.897 : en:Chapter 5
00:24:41.063 : en:Chapter 6
00:29:45.826 : en:Chapter 7
00:35:00.598 : en:Chapter 8
00:39:07.595 : en:Chapter 9
00:47:28.220 : en:Chapter 10
00:57:16.224 : en:Chapter 11
01:02:55.271 : en:Chapter 12
01:09:26.829 : en:Chapter 13
01:14:30.299 : en:Chapter 14
01:21:43.774 : en:Chapter 15
01:30:10.530 : en:Chapter 16
01:38:15.515 : en:Chapter 17
01:44:08.742 : en:Chapter 18
01:54:07.215 : en:Chapter 19
02:03:00.290 : en:Chapter 20
Источник http://BlaTor.org

Трекер:  [ 09-Апр-2019 14:50 ]

  

Скачать .torrent

Размер .torrent файла 12 KB


Размер: 2.31 GB
Хэш (hash) релиза: 8c102225f3086b8258d973d3a9c41ebcc173669c
Подписка на обновления:

Торренты, похожие на Стекло Glass скачать торрент

Форум Название Автор Размер S L Добавлен
Зарубежные фильмы 2016-2018 (Новинки зарубежного кино) ·%· Стекло / Glass (2019) BDRip-AVC от ExKinoRay | P, A Galfimbul 31952697602.98 GB 0 0 1562424703

17:51

6-Июл-19

Зарубежные фильмы 2016-2018 (Новинки зарубежного кино) ·%· Стекло / Glass (2019) BDRip-AVC от HELLYWOOD | iTunes Galfimbul 23416715522.18 GB 0 0 1556715614

16:00

1-Май-19

Зарубежные фильмы 2016-2018 (Новинки зарубежного кино) ·%· Стекло / Glass (2019) BDRip от MegaPeer | iTunes Galfimbul 22821108942.13 GB 0 0 1555685443

17:50

19-Апр-19

Зарубежные фильмы 2016-2018 (Новинки зарубежного кино) ·%· Стекло / Glass (2019) HDRip от Scarabey | iTunes Galfimbul 22791639042.12 GB 0 0 1555610428

21:00

18-Апр-19

Зарубежные фильмы 2016-2018 (Новинки зарубежного кино) ·%· Стекло / Glass (2019) BDRip-AVC от HELLYWOOD | iTunes Galfimbul 15108378001.41 GB 0 0 1555494609

12:50

17-Апр-19

Зарубежные фильмы 2016-2018 (Новинки зарубежного кино) ·%· Стекло / Glass (2019) BDRip | iTunes Galfimbul 863236096823 MB 0 0 1555467011

05:10

17-Апр-19

Зарубежные фильмы 2016-2018 (Новинки зарубежного кино) ·%· Стекло / Glass (2019) BDRip 1080p от qqss44 & MegaPeer | iTunes Galfimbul 82581589217.69 GB 0 0 1555420808

16:20

16-Апр-19

Зарубежные фильмы 2016-2018 (Новинки зарубежного кино) ·%· Стекло / Glass (2019) HDRip от Dalemake | iTunes Galfimbul 15666162221.46 GB 1 23 1555390807

08:00

16-Апр-19

Зарубежные фильмы 2016-2018 (Новинки зарубежного кино) ·%· Стекло / Glass (2019) UHD BDRip 2160p от селезень | 4K | HDR | iTunes Galfimbul 3018438537728.11 GB 0 0 1555362011

00:00

16-Апр-19

Зарубежные фильмы 2016-2018 (Новинки зарубежного кино) ·%· Стекло / Glass (2019) UHD BDRemux 2160p от селезень | 4K | HDR | iTunes Galfimbul 6842933195363.73 GB 0 0 1555356620

22:30

15-Апр-19

Зарубежные фильмы 2016-2018 (Новинки зарубежного кино) ·%· Стекло / Glass (2019) BDRemux 1080p от селезень | iTunes Galfimbul 3340076066031.11 GB 0 0 1555355413

22:10

15-Апр-19

Зарубежные фильмы 2016-2018 (Новинки зарубежного кино) ·%· Стекло / Glass (2019) BDRip 720p от селезень | iTunes Galfimbul 76776452817.15 GB 2 0 1555354207

21:50

15-Апр-19

Зарубежные фильмы 2016-2018 (Новинки зарубежного кино) ·%· Стекло / Glass (2019) BDRip 1080p от селезень | iTunes Galfimbul 105953397999.87 GB 1 19 1555353009

21:30

15-Апр-19

Зарубежные фильмы 2016-2018 (Новинки зарубежного кино) ·%· Стекло / Glass (2019) BDRip от Twister & ExKinoRay | HDRezka Studio Galfimbul 15691672901.46 GB 0 0 1554931225

00:20

11-Апр-19

Зарубежные фильмы 2016-2018 (Новинки зарубежного кино) ·%· Стекло / Glass (2019) BDRip от Twister & ExKinoRay | HDRezka Studio Galfimbul 23440019522.18 GB 0 0 1554931211

00:20

11-Апр-19

Зарубежные фильмы 2016-2018 (Новинки зарубежного кино) ·%· Стекло / Glass (2019) HDRip от Scarabey | HDRezka Studio Galfimbul 15992913921.49 GB 0 0 1554921696

21:41

10-Апр-19

Зарубежные фильмы 2016-2018 (Новинки зарубежного кино) ·%· Стекло / Glass (2019) BDRip 720p от k.e.n & MegaPeer | HDRezka Studio Galfimbul 46802270394.36 GB 0 0 1554915010

19:50

10-Апр-19

Зарубежные фильмы 2016-2018 (Новинки зарубежного кино) ·%· Стекло / Glass (2019) BDRip 1080p от селезень | HDRezka Studio Galfimbul 1230421437711.46 GB 0 0 1554894060

14:01

10-Апр-19

Зарубежные фильмы 2016-2018 (Новинки зарубежного кино) ·%· Стекло / Glass (2019) BDRemux 1080p от селезень | HDRezka Studio Galfimbul 3676857260934.24 GB 0 0 1554894048

14:00

10-Апр-19

Зарубежные фильмы 2016-2018 (Новинки зарубежного кино) ·%· Стекло / Glass (2019) UHD BDRemux 2160p от селезень | 4K | HDR | HDRezka Studio Galfimbul 7179716052566.87 GB 0 0 1554894023

14:00

10-Апр-19

Еще никто не оставлял запись к записи скачать торрент Стекло Glass . Будь первым!

!Обратная связь