Скачать через торрент Танцы насмерть Фильм бесплатно в хорошем качестве torrent

Скачивайте на UnionPeer.org фильмы через торрент без регистрации. Новинки кино в хорошем качестве через торрент. На UnionPeer.org можно скачать через торрент фильмы 2014 и 2015 годов. Самые новые фильмы.

Скачать торрент Танцы насмерть бесплатно через .torrent фильм мультфильм сериал

Статистика раздачи
Размер:  4.88 GB   |    Зарегистрирован:  12 дней   |    .torrent скачан:  37 раз   |   
Раздают:  1  
   
загрузка...
 
Автор Сообщение

Galfimbul

avatar Galfimbul


Танцы насмерть



[b]Год выхода:
2017
Жанр: фантастика, триллер, боевик
Режиссер: Андрей Волгин
В ролях: Иван Жвакин, Лукерья Ильяшенко, Никита Волков, Александр Тютин, Агния Дитковските, Денис Шведов, Ола Кейру, Евгений Михеев

О фильме:
Москва, 2070-е. Ядерная война и катаклизмы уничтожили цивилизацию. В закрытом бункере на высокотехнологичной арене проводится жестокий танцевальный турнир, в котором состязаются молодые герои. Механизм арены — непостижимый симбиоз современных технологий и древних жертвенных ритуалов. Арена выкачивает из проигравших танцоров энергию, необходимую для выживания всего города. Главный герой — парень с улиц по имени Костя — попадается во время полицейской облавы и становится участником турнира. Его приводят в закрытый бункер, где он знакомится с другими претендентами на победу. И влюбляется в одну из участниц шоу. Удастся ли герою выжить и спасти любимую девушку — или их жизни заберет арена?



Страна: Россия
Студия: Компания «Киноданц»
Продолжительность: 01:38:26
Перевод: не требуется

Файл
Кодек: H.264
Качество: BDRip 720р от SuperMin
Видео: 1280x536 (2.40:1), 6031 kbps, 23.976 fps
Звук: Русский (AC-3, 6ch, 640 kbps)
x264 [info]: frame I:1657 Avg QP:17.12 size:123287
x264 [info]: frame P:34819 Avg QP:18.50 size: 62882
x264 [info]: frame B:111456 Avg QP:20.44 size: 21139
x264 [info]: consecutive B-frames: 3.3% 3.6% 14.0% 14.8% 17.4% 42.3% 3.6% 0.4% 0.6%
x264 [total]: encoded 147932 frames, 5.07 fps, 6031.74 kb/s

General
Unique ID : 243130860316833371650858908027104127384 (0xB6E94CE8E83ED62DB0D0C0CFB10DE998)
Complete name : H:ФИЛЬМЫТанцы насмерть (2017).mkv
Format : Matroska
Format version : Version 2
File size : 4.88 GiB
Duration : 1 h 42 min
Overall bit rate : 6 807 kb/s
Encoded date : UTC 2019-01-11 14:07:49
Writing application : mkvmerge v7.8.0 ('River Man') 32bit built on Apr 3 2015 12:11:22
Writing library : libebml v1.3.1 + libmatroska v1.4.2

Video
ID : 1
Format : AVC
Format/Info : Advanced Video Codec
Format profile : High@L4.1
Format settings, CABAC : Yes
Format settings, ReFrames : 11 frames
Codec ID : V_MPEG4/ISO/AVC
Duration : 1 h 42 min
Bit rate : 6 031 kb/s
Width : 1 280 pixels
Height : 536 pixels
Display aspect ratio : 2.40:1
Frame rate mode : Constant
Frame rate : 24.000 FPS
Color space : YUV
Chroma subsampling : 4:2:0
Bit depth : 8 bits
Scan type : Progressive
Bits/(Pixel*Frame) : 0.366
Stream size : 4.33 GiB (89%)
Writing library : x264 core 146 r2538 121396c
Encoding settings : cabac=1 / ref=11 / deblock=1:-1:-1 / analyse=0x3:0x113 / me=umh / subme=10 / psy=1 / psy_rd=1.00:0.15 / mixed_ref=1 / me_range=32 / chroma_me=1 / trellis=2 / 8x8dct=1 / cqm=0 / deadzone=21,11 / fast_pskip=0 / chroma_qp_offset=-3 / threads=12 / lookahead_threads=2 / sliced_threads=0 / nr=0 / decimate=1 / interlaced=0 / bluray_compat=0 / constrained_intra=0 / bframes=8 / b_pyramid=2 / b_adapt=2 / b_bias=0 / direct=1 / weightb=1 / open_gop=0 / weightp=2 / keyint=240 / keyint_min=23 / scenecut=40 / intra_refresh=0 / rc=crf / mbtree=0 / crf=19.0 / qcomp=0.60 / qpmin=0 / qpmax=69 / qpstep=4 / ip_ratio=1.40 / pb_ratio=1.30 / aq=1:1.00
Default : Yes
Forced : No

Audio
ID : 2
Format : AC-3
Format/Info : Audio Coding 3
Mode extension : CM (complete main)
Format settings, Endianness : Big
Codec ID : A_AC3
Duration : 1 h 42 min
Bit rate mode : Constant
Bit rate : 640 kb/s
Channel(s) : 6 channels
Channel positions : Front: L C R, Side: L R, LFE
Sampling rate : 48.0 kHz
Frame rate : 31.250 FPS (1536 spf)
Bit depth : 16 bits
Compression mode : Lossy
Stream size : 470 MiB (9%)
Default : Yes
Forced : No
Источник http://BlaTor.org

Трекер:  [ 11-Апр-2019 21:50 ]

  

Скачать .torrent

Размер .torrent файла 12 KB


Размер: 4.88 GB
Хэш (hash) релиза: 983fe489292f1a021a1e07744e94fbb9d95caad3
Подписка на обновления:

Торренты, похожие на Танцы насмерть скачать торрент

Форум Название Автор Размер S L Добавлен
Российские фильмы до 2016 ·· Танцы насмерть (Андрей Волгин) [2017, Фантастика, Blu-ray disc 1080i] [FRA] Galfimbul 2863759395326.67 GB 0 0 1510049386

13:09

7-Ноя-17

Российские фильмы до 2016 ·· Танцы насмерть (Андрей Волгин) [2017, Фантастика, BDRip-AVC] Galfimbul 34743937713.24 GB 0 0 1508257791

19:29

17-Окт-17

Российские фильмы до 2016 ·· Танцы насмерть (Андрей Волгин) [2017, Россия, Фантастика, WEB-DLRip] Galfimbul 781271040745 MB 0 0 1493750432

21:40

2-Май-17

Российские фильмы до 2016 ·· Танцы насмерть (Андрей Волгин) [2017, Фантастика, WEB-DLRip] Galfimbul 15682652061.46 GB 0 0 1493570937

19:48

30-Апр-17

Еще никто не оставлял запись к записи скачать торрент Танцы насмерть . Будь первым!

!Обратная связь