Скачать через торрент Русское краткое. Выпуск 1 Фильм бесплатно в хорошем качестве torrent

Скачивайте на UnionPeer.org фильмы через торрент без регистрации. Новинки кино в хорошем качестве через торрент. На UnionPeer.org можно скачать через торрент фильмы 2014 и 2015 годов. Самые новые фильмы.

Скачать торрент Русское краткое. Выпуск 1 бесплатно через .torrent фильм мультфильм сериал

Статистика раздачи
Размер:  3.42 GB   |    Зарегистрирован:  3 месяца 3 дня   |    .torrent скачан:  214 раз   |   
Раздают:  1  
   
загрузка...
 
Автор Сообщение

Galfimbul

avatar Galfimbul


Название: Русское краткое. Выпуск 1
Год выпуска: 2018
Жанр: Комедия, драма
Режиссер: Григорий Константинопольский, Дмитрий Булин, Павел Емелин, Егор Чичканов, Дарья Власова
В ролях: Никита Ефремов, Александр Паль, Игорь Ясулович, Шамиль Хаматов, Анна Котова, Александр Кузнецов (VI), Анастасия Щеглова, Александр Обласов, Владимир Кошевой, Заза Наполи

О фильме: «Русское краткое. Выпуск 1» — это пять необычных коротких историй. Два героя сражаются за сердце таинственной красавицы в трагикомедии «Олеся». В притче «Молоко» на кухне многоэтажки появляется настоящая корова. Героиня комедии без диалогов «Не в форме» разрывается между желанием похудеть к встрече выпускников и современным культом еды. В жизнь охранника торгового центра Лео врывается эксцентричная Рита Ураган и меняет ее навсегда. А герой истории «Carpe diem» решает важный вопрос — врать или не врать, когда все вокруг лгут.


Выпущено: Россия, Кинокомпания Пионер
Продолжительность: 01:36:00
Язык: Русский | iTunes

Файл
Качество: WEB-DL 1080p
Контейнер: MKV
Видео: MPEG-4 AVC, 4968 Кбит/с, 1920x1080, 24 кадр/с
Аудио: Русский: AAC, 2 ch, 126 Кбит/с - iTunes
Субтитры: Нет
Общее
Уникальный идентификатор : 292268905182654715220629199339101716700 (0xDBE0F191C3F71799D8B537B23CE180DC)
Полное имя : D:Русское.Краткое.Выпуск.1.2018.WEB-DL.1080p.iTunes-ylnian.mkv
Формат : Matroska
Версия формата : Version 4
Размер файла : 3,42 Гбайт
Продолжительность : 1 ч. 36 м.
Общий поток : 5095 Кбит/сек
Название фильма : Русское.Краткое.Выпуск.1.2018.WEB-DL.1080p.iTunes-ylnian
Дата кодирования : UTC 2019-02-15 07:04:55
Программа кодирования : mkvmerge v31.0.0 ('Dolores In A Shoestand') 64-bit
Библиотека кодирования : libebml v1.3.6 + libmatroska v1.4.9

Видео
Идентификатор : 1
Формат : AVC
Формат/Информация : Advanced Video Codec
Профиль формата : High@L4
Настройки формата : CABAC / 4 Ref Frames
Параметр CABAC формата : Да
Параметр RefFrames формата : 4 кадра
Идентификатор кодека : V_MPEG4/ISO/AVC
Продолжительность : 1 ч. 36 м.
Битрейт : 4968 Кбит/сек
Ширина : 1920 пикселей
Высота : 1080 пикселей
Соотношение сторон : 16:9
Режим частоты кадров : Постоянный
Частота кадров : 24,000 кадра/сек
Цветовое пространство : YUV
Субдискретизация насыщенности : 4:2:0
Битовая глубина : 8 бит
Тип развёртки : Прогрессивная
Бит/(Пиксели*Кадры) : 0.100
Размер потока : 3,33 Гбайт (97%)
Заголовок : Русское.Краткое.Выпуск.1.2018.WEB-DL.1080p.iTunes-ylnian
Язык : Russian
Default : Да
Forced : Да
Цветовой диапазон : Limited
Основные цвета : BT.709
Характеристики трансфера : BT.709
Коэффициенты матрицы : BT.709

Аудио
Идентификатор : 2
Формат : AAC LC
Формат/Информация : Advanced Audio Codec Low Complexity
Идентификатор кодека : A_AAC-2
Продолжительность : 1 ч. 36 м.
Битрейт : 126 Кбит/сек
Каналы : 2 канала
Channel layout : L R
Частота : 48,0 КГц
Частота кадров : 46,875 кадров/сек (1024 SPF)
Метод сжатия : С потерями
Размер потока : 86,2 Мбайт (2%)
Язык : Russian
Default : Да
Forced : Да

Меню
00:00:00.000 : ru:1
00:22:57.500 : ru:2
00:38:27.833 : ru:3
00:58:26.499 : ru:4
01:13:48.374 : ru:5
Источник http://BlaTor.org

Трекер:  [ 12-Апр-2019 22:00 ]

  

Скачать .torrent

Размер .torrent файла 17 KB


Размер: 3.42 GB
Хэш (hash) релиза: 18ffacead03165306a4c39712bd68070ff342837
Подписка на обновления:

Еще никто не оставлял запись к записи скачать торрент Русское краткое. Выпуск 1 . Будь первым!

!Обратная связь