Скачать через торрент Симпсоны The Simpsons Фильм бесплатно в хорошем качестве torrent

Скачивайте на UnionPeer.org фильмы через торрент без регистрации. Новинки кино в хорошем качестве через торрент. На UnionPeer.org можно скачать через торрент фильмы 2014 и 2015 годов. Самые новые фильмы.

Скачать торрент Симпсоны The Simpsons бесплатно через .torrent фильм мультфильм сериал

Статистика раздачи
Размер:  5.22 GB   |    Зарегистрирован:  3 месяца 1 день   |    .torrent скачан:  26 раз   |   
Раздают:  3  
   
загрузка...
 
Автор Сообщение

Galfimbul

avatar Galfimbul


Симпсоны /The Simpsons

Год выхода: 2016-2017
Жанр: Мультфильм, комедия, семейный
Режиссер: Марк Керклэнд, Джефф Линч, Сьюзи Диттер
В ролях: Дэн Кастелланета, Нэнси Картрайт, Гарри Ширер, Джули Кавнер, Ярдли Смит, Хэнк Азария, Памела Хейден, Тресс МакНилл, Карл Видерготт, Мэгги Росвэлл

О фильме:
Мультфильм — пародия на американский уклад жизни. Семейство Симпсонов состоит из пяти членов: папаша Гомер, мать семейства Мардж, их дочери, Лиза и Мэгги, и несносный подросток Барт.



Страна: США
Студия: 20th Century Fox Television, Gracie Films
Продолжительность: ~ 00:22:00
Перевод: Профессиональный (многоголосый, закадровый) 2х2

Файл
Кодек: 1920x1080, 23.976 fps, HEVC, ~1000 kbps, 10bit
Качество: WEBRip-HEVC 1080p | 2x2
Звук: AC3 / 2.0 / 48 kHz / 192 kbps / 16 bit | 2x2
Субтитры: Английские
General
Unique ID : 249694528494097130753207507401540478931 (0xBBD96ABC6CE6B001A4DD2E2DF879A7D3)
Complete name : Z:VideoThe Simpsons (1080p HEVC)Season 2828x01 - Monty Burns Fleeing Circus.mkv
Format : Matroska
Format version : Version 4 / Version 2
File size : 239 MiB
Duration : 21 min 10 s
Overall bit rate : 1 578 kb/s
Encoded date : UTC 2019-04-10 12:35:47
Writing application : mkvmerge v8.3.0 ('Over the Horizon') 64bit
Writing library : libebml v1.3.1 + libmatroska v1.4.2

Video
ID : 1
Format : HEVC
Format/Info : High Efficiency Video Coding
Format profile : Main@L4@Main
Codec ID : V_MPEGH/ISO/HEVC
Duration : 21 min 10 s
Bit rate : 1 000 kb/s
Width : 1 920 pixels
Height : 1 080 pixels
Display aspect ratio : 16:9
Frame rate mode : Constant
Frame rate : 23.976 (24000/1001) FPS
Color space : YUV
Chroma subsampling : 4:2:0
Bit depth : 8 bits
Bits/(Pixel*Frame) : 0.020
Stream size : 151 MiB (63%)
Writing library : x265 2.9+9-f74003e88622:[Windows][GCC 8.2.0][64 bit] 8bit
Encoding settings : cpuid=1111039 / frame-threads=5 / wpp / no-pmode / no-pme / no-psnr / no-ssim / log-level=3 / input-csp=1 / input-res=1920x1080 / interlace=0 / total-frames=0 / level-idc=0 / high-tier=1 / uhd-bd=0 / ref=3 / allow-non-conformance / no-repeat-headers / annexb / no-aud / no-hrd / info / hash=0 / no-temporal-layers / open-gop / min-keyint=24 / keyint=240 / gop-lookahead=0 / bframes=4 / b-adapt=2 / b-pyramid / bframe-bias=0 / rc-lookahead=20 / lookahead-slices=6 / scenecut=40 / radl=0 / no-intra-refresh / ctu=64 / min-cu-size=8 / no-rect / no-amp / max-tu-size=32 / tu-inter-depth=1 / tu-intra-depth=1 / limit-tu=0 / rdoq-level=0 / dynamic-rd=0.00 / no-ssim-rd / signhide / no-tskip / nr-intra=0 / nr-inter=0 / no-constrained-intra / strong-intra-smoothing / max-merge=2 / limit-refs=3 / no-limit-modes / me=1 / subme=2 / merange=57 / temporal-mvp / weightp / no-weightb / no-analyze-src-pics / deblock=-3:-3 / sao / no-sao-non-deblock / rd=3 / no-early-skip / rskip / no-fast-intra / no-tskip-fast / no-cu-lossless / no-b-intra / no-splitrd-skip / rdpenalty=0 / psy-rd=2.00 / psy-rdoq=0.00 / no-rd-refine / no-lossless / cbqpoffs=0 / crqpoffs=0 / rc=abr / bitrate=1000 / qcomp=0.60 / qpstep=4 / stats-write=0 / stats-read=1 / cplxblur=20.0 / qblur=0.5 / ipratio=1.40 / pbratio=1.30 / aq-mode=1 / aq-strength=1.00 / cutree / zone-count=0 / no-strict-cbr / qg-size=32 / no-rc-grain / qpmax=69 / qpmin=0 / no-const-vbv / sar=1 / overscan=0 / videoformat=5 / range=0 / colorprim=1 / transfer=1 / colormatrix=1 / chromaloc=0 / display-window=0 / max-cll=0,0 / min-luma=0 / max-luma=255 / log2-max-poc-lsb=8 / vui-timing-info / vui-hrd-info / slices=1 / no-opt-qp-pps / no-opt-ref-list-length-pps / no-multi-pass-opt-rps / scenecut-bias=0.05 / no-opt-cu-delta-qp / no-aq-motion / no-hdr / no-hdr-opt / no-dhdr10-opt / no-idr-recovery-sei / analysis-reuse-level=5 / scale-factor=0 / refine-intra=0 / refine-inter=0 / refine-mv=0 / no-limit-sao / ctu-info=0 / no-lowpass-dct / refine-mv-type=0 / copy-pic=1 / max-ausize-factor=1.0 / no-dynamic-refine / no-single-sei
Default : Yes
Forced : No
Color range : Limited
Color primaries : BT.709
Transfer characteristics : BT.709
Matrix coefficients : BT.709

Audio #1
ID : 2
Format : AC-3
Format/Info : Audio Coding 3
Format settings, Endianness : Big
Codec ID : A_AC3
Duration : 21 min 10 s
Bit rate mode : Constant
Bit rate : 192 kb/s
Channel(s) : 2 channels
Channel positions : Front: L R
Sampling rate : 48.0 kHz
Frame rate : 31.250 FPS (1536 SPF)
Bit depth : 16 bits
Compression mode : Lossy
Stream size : 29.1 MiB (12%)
Title : 2x2
Language : Russian
Service kind : Complete Main
Default : Yes
Forced : No

Audio #2
ID : 3
Format : AC-3
Format/Info : Audio Coding 3
Format settings, Endianness : Big
Codec ID : A_AC3
Duration : 21 min 10 s
Bit rate mode : Constant
Bit rate : 384 kb/s
Channel(s) : 6 channels
Channel positions : Front: L C R, Side: L R, LFE
Sampling rate : 48.0 kHz
Frame rate : 31.250 FPS (1536 SPF)
Bit depth : 16 bits
Compression mode : Lossy
Stream size : 58.2 MiB (24%)
Language : English
Service kind : Complete Main
Default : No
Forced : No

Text #1
ID : 4
Format : UTF-8
Codec ID : S_TEXT/UTF8
Codec ID/Info : UTF-8 Plain Text
Duration : 20 min 21 s
Bit rate : 136 b/s
Count of elements : 384
Stream size : 20.4 KiB (0%)
Language : Russian
Default : Yes
Forced : No

Text #2
ID : 5
Format : UTF-8
Codec ID : S_TEXT/UTF8
Codec ID/Info : UTF-8 Plain Text
Duration : 21 min 1 s
Bit rate : 87 b/s
Count of elements : 498
Stream size : 13.5 KiB (0%)
Language : English
Default : No
Forced : No
Источник http://BlaTor.org

Трекер:  [ 14-Апр-2019 21:20 ]

  

Скачать .torrent

Размер .torrent файла 14 KB


Размер: 5.22 GB
Хэш (hash) релиза: 4b128c4c822e1ef6a20ca7368a7006a998afe666
Подписка на обновления:

Торренты, похожие на Симпсоны The Simpsons скачать торрент

Форум Название Автор Размер S L Добавлен
Мультфильмы 2016-2018 (Новинки мультфильмов) ·%· Симпсоны / The Simpsons [S30] (2018) WEBRip 1080p | VO-production Galfimbul 1466169101713.65 GB 0 0 1558675955

08:32

24-Май-19

Мультфильмы 2016-2018 (Новинки мультфильмов) ·%· Симпсоны / The Simpsons [S29] (2017-2018) WEBRip-HEVC 1080p | 2x2 Galfimbul 53209877034.96 GB 0 0 1558641625

23:00

23-Май-19

Мультфильмы 2016-2018 (Новинки мультфильмов) ·%· Симпсоны / The Simpsons [30x01-22 из 23] (2018) WEBRip 1080p | VO-production Galfimbul 1406936105513.1 GB 0 0 1558409423

06:30

21-Май-19

Мультфильмы 2016-2018 (Новинки мультфильмов) ·%· Симпсоны / The Simpsons [30x01-21 из 23] (2018) WEBRip 1080p | VO-production Galfimbul 1348935029012.56 GB 0 0 1558217420

01:10

19-Май-19

Мультфильмы 2016-2018 (Новинки мультфильмов) ·%· Симпсоны / The Simpsons [S26] (2014-2015) WEBRip-HEVC 1080p | 2x2 Galfimbul 49417482544.6 GB 0 0 1555602015

18:40

18-Апр-19

Мультфильмы 2016-2018 (Новинки мультфильмов) ·%· Симпсоны / The Simpsons [S25] (2013-2014) WEBRip-HEVC 1080p | 2x2 Galfimbul 49433012634.6 GB 0 0 1555573212

10:40

18-Апр-19

Мультфильмы 2016-2018 (Новинки мультфильмов) ·%· Симпсоны / The Simpsons [S27] (2015-2016) WEBRip-HEVC 1080p | 2x2 Galfimbul 55988853135.21 GB 0 0 1555247418

16:10

14-Апр-19

Мультфильмы 2016-2018 (Новинки мультфильмов) ·%· Симпсоны / The Simpsons [30x01-20 из 22] (2018) WEBRip 1080p | VO-production Galfimbul 1286914441611.99 GB 0 0 1555041035

06:50

12-Апр-19

Мультфильмы 2016-2018 (Новинки мультфильмов) ·%· Симпсоны / The Simpsons [30x01-19 из 22] (2018) WEBRip 1080p | VO-production Galfimbul 1220251847211.36 GB 0 0 1554498033

00:00

6-Апр-19

Мультфильмы 2016-2018 (Новинки мультфильмов) ·%· Симпсоны / The Simpsons [30x01-17 из 22] (2018) WEBRip 1080p | VO-production Galfimbul 1101559754310.26 GB 0 0 1553218843

04:40

22-Мар-19

Мультфильмы 2016-2018 (Новинки мультфильмов) ·%· Симпсоны / The Simpsons [30x01-16 из 22] (2018) WEBRip 1080p | VO-production Galfimbul 104122537259.7 GB 0 0 1552833648

17:40

17-Мар-19

Мультфильмы 2016-2018 (Новинки мультфильмов) ·%· Симпсоны / The Simpsons [30x01-15 из 22] (2018) WEBRip 1080p | VO-production Galfimbul 98205450809.15 GB 0 0 1552079432

00:10

9-Мар-19

Мультфильмы 2016-2018 (Новинки мультфильмов) ·%· Симпсоны / The Simpsons [30x01-14 из 22] (2018) WEBRip 1080p | VO-production Galfimbul 92670558658.63 GB 0 0 1550784043

00:20

22-Фев-19

Мультфильмы 2016-2018 (Новинки мультфильмов) ·%· Симпсоны / The Simpsons [30x01-13 из 22] (2018) WEBRip 1080p | VO-production Galfimbul 86705087188.08 GB 0 0 1550352050

00:20

17-Фев-19

Мультфильмы 2016-2018 (Новинки мультфильмов) ·%· Симпсоны / The Simpsons [30x01-12 из 22] (2018) WEBRip 1080p | VO-production Galfimbul 81046797757.55 GB 0 0 1547972428

11:20

20-Янв-19

Мультфильмы 2016-2018 (Новинки мультфильмов) ·%· Симпсоны / The Simpsons [30x01-11 из 22] (2018) WEBRip 1080p | VO-production Galfimbul 75319092487.01 GB 0 0 1547706616

09:30

17-Янв-19

Мультфильмы 2016-2018 (Новинки мультфильмов) ·%· Симпсоны / The Simpsons [30х01-11 из 21] (2018) WEBRip 720p | SunshineStudio Galfimbul 38232478523.56 GB 0 0 1547114410

13:00

10-Янв-19

Мультфильмы 2016-2018 (Новинки мультфильмов) ·%· Симпсоны / The Simpsons [30x1-10 из 22] (2018) WEBRip 1080p | VO-production Galfimbul 69079588196.43 GB 0 0 1544919024

03:10

16-Дек-18

Мультфильмы 2016-2018 (Новинки мультфильмов) ·%· Симпсоны / The Simpsons [30x01-09 из 21] (2018) WEBRip 1080p | ColdFilm Galfimbul 70264903276.54 GB 0 0 1543843371

16:22

3-Дек-18

Еще никто не оставлял запись к записи скачать торрент Симпсоны The Simpsons . Будь первым!

!Обратная связь