Скачать через торрент Двойное свидание Double Date Фильм бесплатно в хорошем качестве torrent

Скачивайте на UnionPeer.org фильмы через торрент без регистрации. Новинки кино в хорошем качестве через торрент. На UnionPeer.org можно скачать через торрент фильмы 2014 и 2015 годов. Самые новые фильмы.

Скачать торрент Двойное свидание Double Date бесплатно через .torrent фильм мультфильм сериал

Статистика раздачи
Размер:  5.91 GB   |    Зарегистрирован:  1 месяц 11 дней   |    .torrent скачан:  61 раз   |   
Раздают:  2  
   
загрузка...
 
Автор Сообщение

Galfimbul

avatar Galfimbul


Двойное свидание /Double Date

Год выхода: 2017
Жанр: Ужасы, комедия
Режиссер: Бенджамин Барфут
В ролях: Дэнни Морган, Джорджия Грум, Майкл Сока, Келли Венхам, Дуги Пойнтер, Брук Норбери, Мария Барр, Таника Бекфорд, Бенни Берейл, Керрианн Букер

О фильме:
Невинный Джим до смерти боится девушек и робко пытается показать, что он уже мужчина за день до тридцатилетия. Вместе со своим нахальным другом Алексом они думают, что сорвали джекпот, встретив двух симпатчных сестер, Китти и Лулу. Кажется, они готовы пойти на что угодно, и ночью они уходят в отрыв. Но друзья и не подозревали, что роковые женщины хотят лишить Джима не только его девственности. Ради первого секса ещё никогда не приходилось проливать столько крови.



Страна: Великобритания
Студия: Dignity Film Finance, Merrymeet Films, Stigma Films
Продолжительность: 01:29:23
Перевод: Любительский одноголосый | Хихидок

Файл
Кодек: x.264
Качество: BDRip 1080p
Видео: MPEG-4 AVC, 7700 Kбит/с, 1920x800, 24.000 кадр/с
Звук: Небольшая реклама в конце фильма в титрах
Аудио #1: Русский (АС3, 2ch, 256 Кбит/с, 48.0 KHz) Любительский (одноголосый, закадровый) Хихикающий доктор
Аудио #2: Английский (DTS, 6ch, 1509 Кбит/с, 48.0 KHz)
Субтитры: английские
General
Unique ID : 184452074863937893167337289168274580662 (0x8AC42D6BF3F510B6AC20DB14CCF3E4B6)
Complete name : Double.Date.2017.BDRip.1080p.mkv
Format : Matroska
Format version : Version 4 / Version 2
File size : 5.91 GiB
Duration : 1 h 29 min
Overall bit rate : 9 462 kb/s
Encoded date : UTC 2019-04-14 07:18:59
Writing application : mkvmerge v7.1.0 ('Good Love') 64bit built on Jul 27 2014 13:06:55
Writing library : libebml v1.3.0 + libmatroska v1.4.1

Video
ID : 1
Format : AVC
Format/Info : Advanced Video Codec
Format profile : High@L4.1
Format settings, CABAC : Yes
Format settings, RefFrames : 5 frames
Codec ID : V_MPEG4/ISO/AVC
Duration : 1 h 29 min
Bit rate : 7 700 kb/s
Width : 1 920 pixels
Height : 800 pixels
Display aspect ratio : 2.40:1
Frame rate mode : Constant
Frame rate : 24.000 FPS
Color space : YUV
Chroma subsampling : 4:2:0
Bit depth : 8 bits
Scan type : Progressive
Bits/(Pixel*Frame) : 0.209
Stream size : 4.80 GiB (81%)
Writing library : x264 core 148 r2638 7599210
Encoding settings : cabac=1 / ref=5 / deblock=1:-2:-2 / analyse=0x3:0x133 / me=umh / subme=11 / psy=1 / psy_rd=1.00:0.20 / mixed_ref=1 / me_range=48 / chroma_me=1 / trellis=2 / 8x8dct=1 / cqm=0 / deadzone=21,11 / fast_pskip=1 / chroma_qp_offset=-3 / threads=6 / lookahead_threads=1 / sliced_threads=0 / nr=0 / decimate=1 / interlaced=0 / bluray_compat=0 / constrained_intra=0 / bframes=10 / b_pyramid=2 / b_adapt=2 / b_bias=0 / direct=3 / weightb=1 / open_gop=0 / weightp=2 / keyint=250 / keyint_min=23 / scenecut=40 / intra_refresh=0 / rc_lookahead=60 / rc=2pass / mbtree=1 / bitrate=7700 / ratetol=1.0 / qcomp=0.60 / qpmin=0 / qpmax=69 / qpstep=4 / cplxblur=20.0 / qblur=0.5 / ip_ratio=1.40 / aq=1:1.00
Language : English
Default : Yes
Forced : No

Audio #1
ID : 2
Format : AC-3
Format/Info : Audio Coding 3
Format settings, Endianness : Big
Codec ID : A_AC3
Duration : 1 h 29 min
Bit rate mode : Constant
Bit rate : 256 kb/s
Channel(s) : 2 channels
Channel positions : Front: L R
Sampling rate : 48.0 kHz
Frame rate : 31.250 FPS (1536 SPF)
Bit depth : 16 bits
Compression mode : Lossy
Stream size : 164 MiB (3%)
Title : AVO | Хихидок
Language : Russian
Service kind : Complete Main
Default : Yes
Forced : No

Audio #2
ID : 3
Format : DTS
Format/Info : Digital Theater Systems
Mode : 16
Format settings, Endianness : Big
Codec ID : A_DTS
Duration : 1 h 29 min
Bit rate mode : Constant
Bit rate : 1 509 kb/s
Channel(s) : 6 channels
Channel positions : Front: L C R, Side: L R, LFE
Sampling rate : 48.0 kHz
Frame rate : 93.750 FPS (512 SPF)
Bit depth : 16 bits
Compression mode : Lossy
Stream size : 965 MiB (16%)
Language : English
Default : No
Forced : No

Text
ID : 4
Format : UTF-8
Codec ID : S_TEXT/UTF8
Codec ID/Info : UTF-8 Plain Text
Duration : 1 h 25 min
Bit rate : 54 b/s
Count of elements : 1118
Stream size : 34.4 KiB (0%)
Language : English
Default : No
Forced : No

Menu
00:00:00.000 : en:Chapter 01
00:06:26.833 : en:Chapter 02
00:14:35.833 : en:Chapter 03
00:20:58.708 : en:Chapter 04
00:28:07.250 : en:Chapter 05
00:36:06.083 : en:Chapter 06
00:43:30.375 : en:Chapter 07
00:51:12.250 : en:Chapter 08
00:59:42.875 : en:Chapter 09
01:07:41.375 : en:Chapter 10
01:17:07.333 : en:Chapter 11
01:25:53.291 : en:Chapter 12
Источник http://BlaTor.org

Трекер:  [ 14-Апр-2019 21:40 ]

  

Скачать .torrent

Размер .torrent файла 15 KB


Размер: 5.91 GB
Хэш (hash) релиза: c0ff045e72fe67a4f4ac44d54fb25ee5961ef86a
Подписка на обновления:

Торренты, похожие на Двойное свидание Double Date скачать торрент

Форум Название Автор Размер S L Добавлен
Зарубежные фильмы 2016-2018 (Новинки зарубежного кино) ·· Двойное свидание / Double Date (Бенджамин Барфут) [2017, ужасы, комедия, WEBRip] Galfimbul 12351365121.15 GB 0 0 1523626811

16:40

13-Апр-18

Еще никто не оставлял запись к записи скачать торрент Двойное свидание Double Date . Будь первым!

!Обратная связь