Скачать через торрент Тим Талер, или Проданный смех Timm Thaler oder das verkaufte Lachen Фильм бесплатно в хорошем качестве torrent

Скачивайте на UnionPeer.org фильмы через торрент без регистрации. Новинки кино в хорошем качестве через торрент. На UnionPeer.org можно скачать через торрент фильмы 2014 и 2015 годов. Самые новые фильмы.

Скачать торрент Тим Талер, или Проданный смех Timm Thaler oder das verkaufte Lachen бесплатно через .torrent фильм мультфильм сериал

Статистика раздачи
Размер:  746 MB   |    Зарегистрирован:  8 дней   |    .torrent скачан:  18 раз   |   
Раздают:  1  
   
загрузка...
 
Автор Сообщение

Galfimbul

avatar Galfimbul


Тим Талер, или Проданный смех /Timm Thaler oder das verkaufte Lachen

Год выхода: 2017
Жанр: Фэнтези, драма, комедия, приключения, семейный
Режиссер: Андреас Дрезен
В ролях: Арвед Фризе, Юстус фон Донаньи, Аксель Праль, Андреас Шмидт, Жюль Херман, Чарли Хюбнер, Харальд Шмидт, Надя Уль, Фритци Хаберландт, Бьярне Медел

О фильме: Мальчик по имени Тим Талер больше всего на свете любил смеяться, и смех у него был жутко заразительным. Однажды на скачках Тим знакомится со странным господином, который предлагает мальчику интересную сделку: Тим продаёт ему свой смех и теперь будет выигрывать любые пари.



Страна: Германия
Студия: Constantin Film, Rolize GmbH & Co., Zweites Deutsches Fernsehen
Продолжительность: 01:42:28
Перевод: Дублированный | iTunes
Субтитры: нет

Файл
Кодек: XviD
Качество: HDRip
Видео: 688x288 (2.39:1), 24.000 fps, XviD build 73 ~880 kbps avg, 0.19 bit/pixel
Звук: 48 kHz, MPEG Layer 3, 2 ch, ~128.00 kbps avg
General
Complete name : Timm.Thaler.oder.das.verkaufte.Lachen.2017.HDRip.Portablius.avi
Format : AVI
Format/Info : Audio Video Interleave
File size : 746 MiB
Duration : 1 h 42 min
Overall bit rate : 1 018 kb/s
Writing application : VirtualDubMod 1.5.10.3 | www.virtualdub-fr.org || (build 2550/release)
Writing library : VirtualDubMod build 2550/release

Video
ID : 0
Format : MPEG-4 Visual
Format profile : Advanced Simple@L5
Format settings : BVOP1 / Custom Matrix
Format settings, BVOP : 1
Format settings, QPel : No
Format settings, GMC : No warppoints
Format settings, Matrix : Custom
Codec ID : XVID
Codec ID/Hint : XviD
Duration : 1 h 42 min
Bit rate : 880 kb/s
Width : 688 pixels
Height : 288 pixels
Display aspect ratio : 2.40:1
Frame rate : 24.000 FPS
Color space : YUV
Chroma subsampling : 4:2:0
Bit depth : 8 bits
Scan type : Progressive
Compression mode : Lossy
Bits/(Pixel*Frame) : 0.185
Stream size : 645 MiB (87%)
Writing library : XviD 73

Audio
ID : 1
Format : MPEG Audio
Format version : Version 1
Format profile : Layer 3
Codec ID : 55
Codec ID/Hint : MP3
Duration : 1 h 42 min
Bit rate mode : Constant
Bit rate : 128 kb/s
Channel(s) : 2 channels
Sampling rate : 48.0 kHz
Frame rate : 41.667 FPS (1152 SPF)
Compression mode : Lossy
Stream size : 93.8 MiB (13%)
Alignment : Aligned on interleaves
Interleave, duration : 42 ms (1.00 video frame)
Interleave, preload duratio : 504 ms
Writing library : LAME3.99r
Encoding settings : -m s -V 4 -q 2 -lowpass 17 -b 128
Источник http://BlaTor.org

Трекер:  [ 15-Апр-2019 16:50 ]

  

Скачать .torrent

Размер .torrent файла 15 KB


Размер: 746 MB
Хэш (hash) релиза: 113e18f092d6862ce20602558fbd3574cc8919f1
Подписка на обновления:

Еще никто не оставлял запись к записи скачать торрент Тим Талер, или Проданный смех Timm Thaler oder das verkaufte Lachen . Будь первым!

!Обратная связь