Скачать через торрент Игры разумов The Professor and the Madman Фильм бесплатно в хорошем качестве torrent

Скачивайте на UnionPeer.org фильмы через торрент без регистрации. Новинки кино в хорошем качестве через торрент. На UnionPeer.org можно скачать через торрент фильмы 2014 и 2015 годов. Самые новые фильмы.

Скачать торрент Игры разумов The Professor and the Madman бесплатно через .torrent фильм мультфильм сериал

Статистика раздачи
Размер:  4.48 GB   |    Зарегистрирован:  1 месяц 4 дня   |    .torrent скачан:  242 раза   |   
Раздают:  2   Качают:  3  
   
загрузка...
 
Автор Сообщение

Galfimbul

avatar Galfimbul


Игры разумов / The Professor and the Madman

Год выпуска: 2019
Жанр: Триллер, драма, детектив, биография
Режиссер: Фарад Сафиниа
В ролях: Мэл Гибсон, Шон Пенн, Натали Дормер, Джереми Ирвин, Дженнифер Или, Стив Кугэн, Стивен Диллэйн, Эдди Марсан, Йоан Гриффит, Лоуренс Фокс

Описание: Англия середины XIX века. Оксфордский профессор Джеймс Мюррей работает над первым в истории словарем английского языка, а его главным соратником становится заключенный психиатрической клиники для особо опасных преступников - доктор Уильям Майнор. Гений Майнор или сумасшедший, хитроумный преступник, ведущий дерзкую игру, чтобы вырваться на свободу, или одержимый ученый? И кто тогда Мюррей: верный друг, жертва манипуляции или организатор сговора?



Выпущено: Ирландия, Fastnet Films, 22h22, Caviar Antwerp NV
Продолжительность: 02:04:27
Перевод: Профессиональный (многоголосый, закадровый) | HDRezka Studio

БЕЗ КАКОЙ-ЛИБО РЕКЛАМЫ!

Формат: MKV
Качество: WEB-DL 1080p
Видео: MPEG-4 AVC, 1912x798 (2.40:1), 24.000 fps, 4471 Kbps, 0.122 bit/pixel
Аудио 1: 48 kHz, AC3, 2.0, 192 Kbps | MVO | RUS |
Аудио 2: 48 kHz, AC3, 5.1, 384 Kbps | Оригинал | ENG |
General
Unique ID : 213597833889315359685567648757084835668 (0xA0B1724985D3BBA095CE8A7E972FCF54)
Complete name : F:The.Professor.and.the.Madman.2019.MVO.1080p.WEB-DL.ExKinoRay.mkv
Format : Matroska
Format version : Version 2
File size : 4.48 GiB
Duration : 2 h 4 min
Overall bit rate : 5 149 kb/s
Movie name : The Professor and the Madman 2019 from ExKinoRay
Encoded date : UTC 2019-04-21 15:35:43
Writing application : mkvmerge v5.6.0 ('Kenya Kane') built on May 27 2012 16:44:04
Writing library : libebml v1.2.3 + libmatroska v1.3.0

Video
ID : 1
Format : AVC
Format/Info : Advanced Video Codec
Format profile : High@L4
Format settings, CABAC : Yes
Format settings, ReFrames : 5 frames
Codec ID : V_MPEG4/ISO/AVC
Duration : 2 h 4 min
Bit rate : 4 471 kb/s
Width : 1 912 pixels
Height : 798 pixels
Display aspect ratio : 2.40:1
Frame rate mode : Constant
Frame rate : 24.000 FPS
Color space : YUV
Chroma subsampling : 4:2:0
Bit depth : 8 bits
Scan type : Progressive
Bits/(Pixel*Frame) : 0.122
Stream size : 3.89 GiB (87%)
Title : The.Professor.and.the.Madman.2019.1080p
Language : English
Default : Yes
Forced : No
Color range : Limited
Color primaries : BT.709
Transfer characteristics : BT.709
Matrix coefficients : BT.709

Audio #1
ID : 2
Format : AC-3
Format/Info : Audio Coding 3
Mode extension : CM (complete main)
Format settings, Endianness : Big
Codec ID : A_AC3
Duration : 2 h 4 min
Bit rate mode : Constant
Bit rate : 192 kb/s
Channel(s) : 2 channels
Channel positions : Front: L R
Sampling rate : 48.0 kHz
Frame rate : 31.250 FPS (1536 spf)
Compression mode : Lossy
Delay relative to video : -42 ms
Stream size : 171 MiB (4%)
Title : MVO (HDRezka Studio)
Language : Russian
Default : Yes
Forced : No

Audio #2
ID : 3
Format : AC-3
Format/Info : Audio Coding 3
Mode extension : CM (complete main)
Format settings, Endianness : Big
Codec ID : A_AC3
Duration : 2 h 4 min
Bit rate mode : Constant
Bit rate : 384 kb/s
Channel(s) : 6 channels
Channel positions : Front: L C R, Side: L R, LFE
Sampling rate : 48.0 kHz
Frame rate : 31.250 FPS (1536 spf)
Compression mode : Lossy
Delay relative to video : -42 ms
Stream size : 342 MiB (7%)
Language : English
Default : No
Forced : No

Menu
00:00:00.000 : en:1
00:10:52.000 : en:2
00:18:58.000 : en:3
00:27:16.000 : en:4
00:36:13.000 : en:5
00:46:23.000 : en:6
00:57:00.000 : en:7
01:06:02.000 : en:8
01:16:08.000 : en:9
01:26:02.000 : en:10
01:34:54.000 : en:11
01:44:13.000 : en:12
01:53:36.000 : en:13
01:59:18.000 : en:14


Автор релиза:
Источник http://BlaTor.org

Трекер:  [ 21-Апр-2019 20:00 ]

  

Скачать .torrent

Размер .torrent файла 23 KB


Размер: 4.48 GB
Хэш (hash) релиза: d85c01d16f6b3062ca965b6ef161e068c6b47096
Подписка на обновления:

Торренты, похожие на Игры разумов The Professor and the Madman скачать торрент

Форум Название Автор Размер S L Добавлен
Зарубежные фильмы 2016-2018 (Новинки зарубежного кино) ·%· Игры разумов / The Professor and the Madman (2019) WEB-DLRip от Scarabey | HDRezka Studio Galfimbul 784037984748 MB 0 0 1556128862

21:01

24-Апр-19

Зарубежные фильмы 2016-2018 (Новинки зарубежного кино) ·%· Игры разумов / The Professor and the Madman (2019) WEB-DLRip-AVC | HDRezka Studio Galfimbul 780736248745 MB 0 0 1556048410

22:40

23-Апр-19

Зарубежные фильмы 2016-2018 (Новинки зарубежного кино) ·%· Игры разумов / The Professor and the Madman (2019) WEB-DLRip от Scarabey | HDRezka Studio Galfimbul 15549112321.45 GB 0 0 1556042415

21:00

23-Апр-19

Зарубежные фильмы 2016-2018 (Новинки зарубежного кино) ·%· Игры разумов / The Professor and the Madman (2019) WEB-DLRip от Generalfilm | КПК | HDRezka Studio Galfimbul 494667401472 MB 0 0 1556006409

11:00

23-Апр-19

Зарубежные фильмы 2016-2018 (Новинки зарубежного кино) ·%· Игры разумов / The Professor and the Madman (2019) WEB-DLRip от ExKinoRay | P Galfimbul 782123008746 MB 0 0 1555928418

13:20

22-Апр-19

Зарубежные фильмы 2016-2018 (Новинки зарубежного кино) ·%· Игры разумов / The Professor and the Madman (2018) WEB-DLRip | HDRezka Studio Galfimbul 23382801492.18 GB 0 0 1555909212

08:00

22-Апр-19

Зарубежные фильмы 2016-2018 (Новинки зарубежного кино) ·%· Игры разумов / The Professor and the Madman (2019) WEB-DLRip-AVC от ExKinoRay | HDRezka Studio Galfimbul 21710274862.02 GB 0 0 1555894809

04:00

22-Апр-19

Зарубежные фильмы 2016-2018 (Новинки зарубежного кино) ·%· Игры разумов / The Professor and the Madman (2019) WEB-DLRip от ExKinoRay | HDRezka Studio Galfimbul 15557427201.45 GB 2 0 1555872013

21:40

21-Апр-19

Еще никто не оставлял запись к записи скачать торрент Игры разумов The Professor and the Madman . Будь первым!

!Обратная связь