Скачать через торрент Трезвый водитель Фильм бесплатно в хорошем качестве torrent

Скачивайте на UnionPeer.org фильмы через торрент без регистрации. Новинки кино в хорошем качестве через торрент. На UnionPeer.org можно скачать через торрент фильмы 2014 и 2015 годов. Самые новые фильмы.

Скачать торрент Трезвый водитель бесплатно через .torrent фильм мультфильм сериал

Статистика раздачи
Размер:  3.46 GB   |    Зарегистрирован:  3 месяца 29 дней   |    .torrent скачан:  272 раза   |   
Раздают:  2  
   
загрузка...
 
Автор Сообщение

Galfimbul

avatar Galfimbul


Название: Трезвый водитель
Год выхода: 2018
Жанр: Комедия, приключения
Режиссер: Резо Гигинеишвили
В ролях: Андрей Бурковский, Виктор Хориняк, Ирина Мартыненко, Янина Студилина

О фильме: Молодой наивный провинциал Артём приезжает к другу в Москву в надежде на новую красивую жизнь, но для начала вынужден помогать ему в нелёгком ночном труде «трезвого водителя». В первый же вечер, отвозя из ночного клуба красавицу Кристину, Артём по недоразумению оказывается вместе с ней в дорогом гостиничном номере. Совершенно не помня события прошлой ночи, Кристина принимает парня за молодого миллионера, а тот, в свою очередь, не спешит ее разочаровывать. С каждым свиданием Артём влюбляется все больше, но и выкручиваться из нелепых ситуаций становится всё сложнее.


Выпущено: Россия, Кинокомпания «Небо», Yellow, Black & White
Продолжительность: 01:35:02
Язык: Русский | iTunes

Файл
Качество: WEB-DL 1080p
Контейнер: MKV
Видео: MPEG-4 AVC, 1920x804, 4470 Кb/s
Аудио: Russian: AC3, 6 ch, 384 Kb/s
Субтитры: Нет
General
Unique ID : 197615261403043756705630809055005855113 (0x94AB509FEF2C6BFF800D5E883A9D4D89)
Complete name : D:Sober.driver.2019.WEB-DL.1080p.ELEKTRI4KA.UNIONGANG.mkv
Format : Matroska
Format version : Version 2
File size : 3.46 GiB
Duration : 1 h 40 min
Overall bit rate : 4 952 kb/s
Movie name : Sober.driver.2019.ELEKTRI4KA.UNIONGANG
Encoded date : UTC 2019-04-25 17:23:56
Writing application : mkvmerge v7.8.0 ('River Man') 32bit built on Apr 3 2015 12:11:22
Writing library : libebml v1.3.1 + libmatroska v1.4.2

Video
ID : 2
Format : AVC
Format/Info : Advanced Video Codec
Format profile : High@L4
Format settings, CABAC : Yes
Format settings, RefFrames : 5 frames
Codec ID : V_MPEG4/ISO/AVC
Duration : 1 h 40 min
Bit rate : 4 470 kb/s
Width : 1 920 pixels
Height : 804 pixels
Display aspect ratio : 2.40:1
Frame rate mode : Constant
Frame rate : 24.000 FPS
Color space : YUV
Chroma subsampling : 4:2:0
Bit depth : 8 bits
Scan type : Progressive
Bits/(Pixel*Frame) : 0.121
Stream size : 3.12 GiB (90%)
Language : English
Default : Yes
Forced : No
Color range : Limited
Color primaries : BT.709
Transfer characteristics : BT.709
Matrix coefficients : BT.709

Audio
ID : 1
Format : AC-3
Format/Info : Audio Coding 3
Format settings, Endianness : Big
Codec ID : A_AC3
Duration : 1 h 40 min
Bit rate mode : Constant
Bit rate : 384 kb/s
Channel(s) : 6 channels
Channel positions : Front: L C R, Side: L R, LFE
Sampling rate : 48.0 kHz
Frame rate : 31.250 FPS (1536 SPF)
Bit depth : 16 bits
Compression mode : Lossy
Stream size : 275 MiB (8%)
Title : iTunes
Language : Russian
Service kind : Complete Main
Default : Yes
Forced : No

Menu
00:00:00.000 : en:Глава 1
00:04:50.208 : en:Глава 2
00:12:47.833 : en:Глава 3
00:22:35.249 : en:Глава 4
00:29:57.957 : en:Глава 5
00:35:22.040 : en:Глава 6
00:43:10.498 : en:Глава 7
00:49:09.873 : en:Глава 8
00:56:10.664 : en:Глава 9
01:00:34.164 : en:Глава 10
01:06:29.455 : en:Глава 11
01:12:24.912 : en:Глава 12
01:18:47.369 : en:Глава 13
01:24:58.326 : en:Глава 14
01:30:23.701 : en:Глава 15
Источник http://BlaTor.org

Трекер:  [ 25-Апр-2019 23:30 ]

  

Скачать .torrent

Размер .torrent файла 17 KB


Размер: 3.46 GB
Хэш (hash) релиза: 605a875607345108202383c225f233727b427a28
Подписка на обновления:

Еще никто не оставлял запись к записи скачать торрент Трезвый водитель . Будь первым!

!Обратная связь