Скачать через торрент Папа, сдохни Фильм бесплатно в хорошем качестве torrent

Скачивайте на UnionPeer.org фильмы через торрент без регистрации. Новинки кино в хорошем качестве через торрент. На UnionPeer.org можно скачать через торрент фильмы 2014 и 2015 годов. Самые новые фильмы.

Скачать торрент Папа, сдохни бесплатно через .torrent фильм мультфильм сериал

Статистика раздачи
Размер:  3.24 GB   |    Зарегистрирован:  1 месяц   |    .torrent скачан:  193 раза   |   
Раздают:  3  
   
загрузка...
 
Автор Сообщение

Galfimbul

avatar Galfimbul


Название: Папа, сдохни
Год выхода: 2018
Жанр: Комедия
Режиссер: Кирилл Соколов
В ролях: Виталий Хаев, Александр Кузнецов, Евгения Крегжде, Михаил Горевой, Елена Шевченко, Игорь Грабузов, Александр Домогаров мл., Владимир Афанасьев, Владимир Кондауров, Артём Башенин

О фильме: Некогда Андрей был самым лучшим опером, но вынужден был оставить службу. Долгое время он переживал по этому поводу и всё чаще находил утешение в алкоголе. В какой-то момент Андрей понял, что хочет отомстить. И вот самый гнусный отец в мире, опер Андрей Геннадьевич, собирает у себя в квартире компанию отъявленных мерзавцев: мстительную дочь-актрису, озлобленного хулигана и обманутого мента. У каждого из них есть свои причины для мести.


Выпущено: Россия, Белое Зеркало
Продолжительность: 01:34:14
Язык: Русский | iTunes

Файл
Качество: WEB-DL 1080p
Контейнер: MKV
Видео: MPEG-4 AVC, 1920x804, 4435 Кb/s
Аудио: Russian: AC3, 6 ch, 384 Kb/s
Субтитры: Нет
General
Unique ID : 226873021790162509354216478784964479531 (0xAAAE27956F0F051187BF0CED059F4A2B)
Complete name : D:Dad.die.2019.WEB-DL.1080p.ELEKTRI4KA.UNIONGANG.mkv
Format : Matroska
Format version : Version 2
File size : 3.24 GiB
Duration : 1 h 34 min
Overall bit rate : 4 917 kb/s
Movie name : Dad.die.2019.ELEKTRI4KA.UNIONGANG.mkv
Encoded date : UTC 2019-04-25 18:34:37
Writing application : mkvmerge v7.8.0 ('River Man') 32bit built on Apr 3 2015 12:11:22
Writing library : libebml v1.3.1 + libmatroska v1.4.2

Video
ID : 2
Format : AVC
Format/Info : Advanced Video Codec
Format profile : High@L4
Format settings, CABAC : Yes
Format settings, RefFrames : 5 frames
Codec ID : V_MPEG4/ISO/AVC
Duration : 1 h 34 min
Bit rate : 4 435 kb/s
Width : 1 920 pixels
Height : 804 pixels
Display aspect ratio : 2.40:1
Frame rate mode : Constant
Frame rate : 25.000 FPS
Color space : YUV
Chroma subsampling : 4:2:0
Bit depth : 8 bits
Scan type : Progressive
Bits/(Pixel*Frame) : 0.115
Stream size : 2.92 GiB (90%)
Language : English
Default : Yes
Forced : No
Color range : Limited
Color primaries : BT.709
Transfer characteristics : BT.709
Matrix coefficients : BT.709

Audio
ID : 1
Format : AC-3
Format/Info : Audio Coding 3
Format settings, Endianness : Big
Codec ID : A_AC3
Duration : 1 h 34 min
Bit rate mode : Constant
Bit rate : 384 kb/s
Channel(s) : 6 channels
Channel positions : Front: L C R, Side: L R, LFE
Sampling rate : 48.0 kHz
Frame rate : 31.250 FPS (1536 SPF)
Bit depth : 16 bits
Compression mode : Lossy
Stream size : 259 MiB (8%)
Title : iTunes
Language : Russian
Service kind : Complete Main
Default : Yes
Forced : No

Menu
00:00:00.000 : en:Глава 1
00:12:27.440 : en:Глава 2
00:16:55.960 : en:Глава 3
00:23:46.680 : en:Глава 4
00:29:55.519 : en:Глава 5
00:38:35.118 : en:Глава 6
00:49:26.078 : en:Глава 7
00:55:22.637 : en:Глава 8
01:03:58.917 : en:Глава 9
01:09:45.036 : en:Глава 10
01:18:30.435 : en:Глава 11
01:29:01.155 : en:Глава 12
Источник http://BlaTor.org

Трекер:  [ 26-Апр-2019 14:40 ]

  

Скачать .torrent

Размер .torrent файла 16 KB


Размер: 3.24 GB
Хэш (hash) релиза: 9d4b4b3f6cb3b903eaf7a6135ec331801c5f2135
Подписка на обновления:

Еще никто не оставлял запись к записи скачать торрент Папа, сдохни . Будь первым!

!Обратная связь