Скачать через торрент Заповедник Фильм бесплатно в хорошем качестве torrent

Скачивайте на UnionPeer.org фильмы через торрент без регистрации. Новинки кино в хорошем качестве через торрент. На UnionPeer.org можно скачать через торрент фильмы 2014 и 2015 годов. Самые новые фильмы.

Скачать торрент Заповедник бесплатно через .torrent фильм мультфильм сериал

Статистика раздачи
Размер:  1.46 GB   |    Зарегистрирован:  3 месяца 24 дня   |    .torrent скачан:  150 раз   |   
Раздают:  1  
   
загрузка...
 
Автор Сообщение

Galfimbul

avatar Galfimbul


Название: Заповедник
Год выпуска: 2018
Жанр: Комедия
Режиссер: Анна Матисон
В ролях: Сергей Безруков, Евгения Крегжде, Анна Михалкова, Гоша Куценко, Александр Семчев, Дмитрий Хрусталев, Виктор Бычков, Софья Евстигнеева, Ярослава Дегтярёва, Леонид Агутин

Описание: Константин, автор песен и виртуозный гитарист, сбегает от накопившихся проблем в заповедник «Михайловское». Костя давно лишился всех способов заработка, почти отчаялся быть услышанным и живет по инерции, часто налегая на алкоголь. Жена и дочь собираются уезжать в Канаду, а в голове бесконечно крутятся вопросы: что именно пошло не так? Как это исправить? Нужно ли вообще кому-то моё творчество, или я сам убедил себя в этом? Возможно, у Константина и достаточно сил, чтобы попытаться всё изменить, но он сильно сомневается, что есть, ради чего и ради кого стараться. Тем не менее, Заповедник — на то и Заповедник, чтобы собраться с мыслями, разбить минное поле собственной жизни на участки и приняться за работу.


Страна: Россия
Продолжительность: 01:48:12
Перевод: Не требуется

Файл
Качество: WEB-DLRip
Формат: AVI
Видео: 704x288 (2.44:1), 23.976 fps, XviD build 73 ~1534 kbps avg, 0.32 bit/pixel
Аудио: 48 kHz, AC3 Dolby Digital, 3/2 (L,C,R,l,r) + LFE ch, ~384 kbps - iTunes
Субтитры: Нет
Формат : AVI
Формат/Информация : Audio Video Interleave
Размер файла : 1,46 Гбайт
Продолжительность : 1 ч. 48 м.
Общий поток : 1928 Кбит/сек
Название фильма : Заповедник_2018_WEB-DLRip
Программа кодирования : VirtualDubMod 1.5.10.3
Библиотека кодирования : VirtualDubMod build 2550/release
Авторское право : порошков

Видео
Идентификатор : 0
Формат : MPEG-4 Visual
Профиль формата : Advanced Simple@L5
Настройки формата : BVOP1 / Custom Matrix
Параметр BVOP формата : 1
Параметр QPel формата : Нет
Параметр GMC формата : Без точки перехода
Параметр матрицы формата : Выборочная
Идентификатор кодека : XVID
Идентификатор кодека/Подсказка : XviD
Продолжительность : 1 ч. 48 м.
Битрейт : 1534 Кбит/сек
Ширина : 704 пикселя
Высота : 288 пикселей
Соотношение сторон : 2,40:1
Частота кадров : 23,976 (24000/1001) кадра/сек
Цветовое пространство : YUV
Субдискретизация насыщенности : 4:2:0
Битовая глубина : 8 бит
Тип развёртки : Прогрессивная
Метод сжатия : С потерями
Бит/(Пиксели*Кадры) : 0.316
Размер потока : 1,16 Гбайт (80%)
Библиотека кодирования : XviD 73

Аудио
Идентификатор : 1
Формат : AC-3
Формат/Информация : Audio Coding 3
Коммерческое название : Dolby Digital
Идентификатор кодека : 2000
Продолжительность : 1 ч. 48 м.
Вид битрейта : Постоянный
Битрейт : 384 Кбит/сек
Каналы : 6 каналов
ChannelLayout : L R C LFE Ls Rs
Частота : 48,0 КГц
Частота кадров : 31,250 кадров/сек (1536 SPF)
Битовая глубина : 16 бит
Метод сжатия : С потерями
Размер потока : 297 Мбайт (20%)
Выравнивание : Разделение по промежуткам
Продолжительность промежутка : 42 мс. (1,00 видеокадр)
Время предзагрузки промежутка : 500 мс.
Язык : Русский
Источник http://BlaTor.org

Трекер:  [ 30-Апр-2019 19:50 ]

  

Скачать .torrent

Размер .torrent файла 15 KB


Размер: 1.46 GB
Хэш (hash) релиза: 32c306b567d57fc91b856ffff30a348b53cbe94c
Подписка на обновления:

Торренты, похожие на Заповедник скачать торрент

Форум Название Автор Размер S L Добавлен
Документальные фильмы и телепередачи ·· Старочеркасский историко-архитектурный музей-заповедник / Путешествие в Старочеркасский заповедник (Дон-ТР) [2013, Док. История. Архитектура, TVRip] Galfimbul 209147080199 MB 0 0 1458436412

04:13

20-Мар-16

Развлекательные телепередачи и шоу ·· Заповедник. Зверские итоги недели (Deutsche Welle) [2017-2018, Политическая сатира, WEBRip] Galfimbul 34261640733.19 GB 0 0 1526841731

21:42

20-Май-18

Документальные фильмы и телепередачи ·· Путешествие по Тебердинскому заповеднику (Алексей Старченко) [2013, документальный, HDTV 1080i] Galfimbul 38178263563.56 GB 0 0 1522503389

16:36

31-Мар-18

Документальные фильмы и телепередачи ·· Заповедник Брянский лес. В поисках черного аиста (Игорь Чернышов) [2013, познавательный, HDTV 1080i] Galfimbul 16543467961.54 GB 0 0 1511635425

21:43

25-Ноя-17

Документальные фильмы и телепередачи ·· Дальневосточный морской заповедник (Илья Петров) [2013, познавательный, HDTV 1080i] Galfimbul 24656068402.3 GB 0 0 1501773188

18:13

3-Авг-17

Документальные фильмы и телепередачи ·· Природа Карелии. Заповедник Kивач (Александр Ефимов) [2013, фауна, HDTV 1080i] Galfimbul 12662290481.18 GB 0 0 1496501492

17:51

3-Июн-17

Документальные фильмы и телепередачи ·· Скрытые вершины (Заповедник Бен-Эй) / The Hidden Highlands [2009, Документальный, HDTV 1080i] ВВС Galfimbul 52493920244.89 GB 0 0 1473872657

20:04

14-Сен-16

Документальные фильмы и телепередачи ·· Заповедник Утриш [2015, Документальный, HDTV 1080i] Galfimbul 674666200643 MB 0 0 1462023346

16:35

30-Апр-16

Документальные фильмы и телепередачи ·· RT: Чудо природы. Приморский заповедник [2011, Документальный, HDTV 1080i] Galfimbul 13473114001.25 GB 0 0 1458239499

21:31

17-Мар-16

Документальные фильмы и телепередачи ·· RT: Чудо природы. Магаданский заповедник [2011, Документальный, HDTV 1080i] Galfimbul 13693634241.28 GB 0 0 1455188940

14:09

11-Фев-16

Документальные фильмы и телепередачи ·· Биосферные заповедники (7 серий из 7) [1982, Документальный, DVDRip] Galfimbul 845395664806 MB 0 0 1435471824

09:10

28-Июн-15

Зарубежные фильмы до 2016 ·· Заповедник / Preservation (Кристофер Денэм / Christopher Denham) [2014, США, ужасы, триллер, WEB-DLRip] DVO (HamsterStudio) Galfimbul 14742364161.37 GB 0 0 1427636946

16:49

29-Мар-15

Зарубежные фильмы до 2016 ·· Заповедник / Preservation (Кристофер Денэм / Christopher Denham) [2014, США, ужасы, триллер, WEB-DL 720p] DVO (HamsterStudio) + VO (xixdok) + Original (Eng) + Subs (Rus, Eng) Galfimbul 33967947833.16 GB 0 0 1422274722

15:18

26-Янв-15

Зарубежные фильмы до 2016 ·· Кровавый заповедник / Шкура / Pelt (Ричард Суинделл / Richard Swindell) [2010, США, Ужасы, комедия, DVDRip] DVO (НТВ+) + Original Eng Galfimbul 16112230401.5 GB 0 0 1421777846

21:17

20-Янв-15

Зарубежные фильмы до 2016 ·· Заповедник / Preservation (Кристофер Денэм / Christopher Denham) [2014, США, ужасы, триллер, HDRip] VO (Xixidok и Ворон) Galfimbul 774307840738 MB 0 0 1421068271

16:11

12-Янв-15

Зарубежные фильмы до 2016 ·· Заповедник / Preservation (Кристофер Денэм / Christopher Denham) [2014, США, ужасы, триллер, WEB-DL 720p] Galfimbul 30152862342.81 GB 0 0 1421066843

15:47

12-Янв-15

Зарубежные фильмы до 2016 ·· Заповедник / Preservation (Кристофер Денэм / Christopher Denham) [2014, США, ужасы, триллер, WEB-DLRip] Galfimbul 14775418881.38 GB 0 0 1421065304

15:21

12-Янв-15

Зарубежные фильмы до 2016 ·· Заповедник / Preservation (Кристофер Денэм / Christopher Denham) [2014, США, ужасы, триллер, WEB-DLRip] Galfimbul 774307840738 MB 0 0 1421065301

15:21

12-Янв-15

Документальные фильмы и телепередачи ·· Путешествие по Тебердинскому заповеднику (RTGHD) [2013, Документальный, HDTV 1080i] Galfimbul 19564498241.82 GB 0 0 1418853912

01:05

18-Дек-14

Еще никто не оставлял запись к записи скачать торрент Заповедник . Будь первым!

!Обратная связь