Скачать через торрент Полицейский с Рублёвки. Новогодний беспредел Фильм бесплатно в хорошем качестве torrent

Скачивайте на UnionPeer.org фильмы через торрент без регистрации. Новинки кино в хорошем качестве через торрент. На UnionPeer.org можно скачать через торрент фильмы 2014 и 2015 годов. Самые новые фильмы.

Скачать торрент Полицейский с Рублёвки. Новогодний беспредел бесплатно через .torrent фильм мультфильм сериал

Статистика раздачи
Размер:  1.37 GB   |    Зарегистрирован:  3 месяца 20 дней   |    .torrent скачан:  53 раза   |   
Раздают:  1  
   
загрузка...
 
Автор Сообщение

Galfimbul

avatar Galfimbul


Полицейский с Рублёвки. Новогодний беспредел



[b]Год выпуска:
2018
Жанр: Комедия
Режиссер: Илья Куликов
В ролях: Александр Петров (III), Сергей Бурунов, Александра Бортич, Татьяна Бабенкова, Софья Каштанова, Роман Попов, Рина Гришина, Ирина Вилкова, Ростислав Гулбис, Сергей Штатнов, Александр Дерепко, Сергей Комаров (II)

О фильме По сюжету, в канун нового года отделение полиции «Барвиха Северное» оказывается под угрозой закрытия. Чтобы спасти родной отдел, полицейский с Рублевки Гриша Измайлов вынужден пойти на крайние меры и вместе с оперативниками решает ограбить банк. Он рассчитывает на то, что его коллеги, вместе с начальником отдела Яковлевым, легко раскроют это дело, деньги вернут обратно, и все сохранят работу в следующем году. Но все идет не так, как задумал Гриша...



Выпущено: Россия
Студия: Legio Felix по заказу телеканала ТНТ
Продолжительность: 01:30:00
Перевод: Не требуется

Файл
Качество: WEBRip
Видео: XviD, ~ 1981 Кбит/с, 720x304
Аудио: AC3, 2 ch, 192 Кбит/с
General
Complete name : C:UsersuserDownloadsVideoPolitseyskiy.s.Rublevki.Novogodniy.bespredel.2018.WEB-DLRip. Files-x.avi
Format : AVI
Format/Info : Audio Video Interleave
File size : 1.37 GiB
Duration : 1h 30mn
Overall bit rate : 2 183 Kbps
Writing application : VirtualDubMod 1.5.10.3 | www.virtualdub-fr.org || (build 2550/release)
Writing library : VirtualDubMod build 2550/release

Video
ID : 0
Format : MPEG-4 Visual
Format profile : Advanced Simple@L5
Format settings, BVOP : 1
Format settings, QPel : No
Format settings, GMC : No warppoints
Format settings, Matrix : Custom
Codec ID : XVID
Codec ID/Hint : XviD
Duration : 1h 30mn
Bit rate : 1 981 Kbps
Width : 720 pixels
Height : 304 pixels
Display aspect ratio : 2.35:1
Frame rate : 25.000 fps
Color space : YUV
Chroma subsampling : 4:2:0
Bit depth : 8 bits
Scan type : Progressive
Compression mode : Lossy
Bits/(Pixel*Frame) : 0.362
Stream size : 1.25 GiB (91%)
Writing library : XviD 73

Audio
ID : 1
Format : AC-3
Format/Info : Audio Coding 3
Mode extension : CM (complete main)
Codec ID : 2000
Duration : 1h 30mn
Bit rate mode : Constant
Bit rate : 192 Kbps
Channel(s) : 2 channels
Channel positions : Front: L R
Sampling rate : 48.0 KHz
Bit depth : 16 bits
Compression mode : Lossy
Stream size : 124 MiB (9%)
Alignment : Split accross interleaves
Interleave, duration : 40 ms (1.00 video frame)
Interleave, preload duration : 500 ms
Релиз от:
Источник http://BlaTor.org

Трекер:  [ 05-Май-2019 12:30 ]

  

Скачать .torrent

Размер .torrent файла 14 KB


Размер: 1.37 GB
Хэш (hash) релиза: 223af90376c8d9f01ad2b3424485590b8c8cadc0
Подписка на обновления:

Торренты, похожие на Полицейский с Рублёвки. Новогодний беспредел скачать торрент

Форум Название Автор Размер S L Добавлен
Российские фильмы 2016-2018 (Новинки русского кино) ·%· Полицейский с Рублёвки. Новогодний беспредел (2018) WEB-DLRip от ExKinoRay Galfimbul 781611008745 MB 2 0 1557667840

16:30

12-Май-19

Российские фильмы 2016-2018 (Новинки русского кино) ·%· Полицейский с Рублёвки. Новогодний беспредел (2018) WEBRip-AVC Galfimbul 779351374743 MB 0 0 1557348684

23:51

8-Май-19

Российские фильмы 2016-2018 (Новинки русского кино) ·%· Полицейский с Рублевки. Новогодний беспредел (2018) WEB-DLRip от Scarabey Galfimbul 14864302081.38 GB 2 0 1557166211

21:10

6-Май-19

Российские фильмы 2016-2018 (Новинки русского кино) ·%· Полицейский с Рублёвки. Новогодний беспредел (2018) WEBRip 720p от ExKinoRay Galfimbul 24864973682.32 GB 5 0 1557058214

15:10

5-Май-19

Российские фильмы 2016-2018 (Новинки русского кино) ·%· Полицейский с Рублёвки. Новогодний беспредел (2018) WEBRip-AVC от Files-x Galfimbul 14682950991.37 GB 0 0 1557051047

13:10

5-Май-19

Российские фильмы 2016-2018 (Новинки русского кино) ·%· Полицейский с Рублёвки. Новогодний беспредел (2018) WEBRip от Generalfilm | КПК Galfimbul 358803952342 MB 0 0 1557043813

11:10

5-Май-19

Российские фильмы 2016-2018 (Новинки русского кино) ·%· Полицейский с Рублёвки. Новогодний беспредел (2018) HDTVRip от GeneralFilm Galfimbul 781039616745 MB 0 0 1557042616

10:50

5-Май-19

Российские фильмы 2016-2018 (Новинки русского кино) ·%· Полицейский с Рублёвки. Новогодний беспредел (2018) WEBRip 720p Galfimbul 18005840041.68 GB 0 0 1556996416

22:00

4-Май-19

Российские фильмы 2016-2018 (Новинки русского кино) ·%· Полицейский с Рублёвки. Новогодний беспредел (2018) WEBRip 720p Galfimbul 24946994182.32 GB 0 0 1556993464

21:11

4-Май-19

Российские фильмы 2016-2018 (Новинки русского кино) ·%· Полицейский с Рублёвки. Новогодний беспредел (2018) WEBRip 1080p Galfimbul 34966165393.26 GB 2 0 1556985034

18:50

4-Май-19

Российские фильмы 2016-2018 (Новинки русского кино) ·%· Полицейский с Рублёвки. Новогодний беспредел (2018) WEBRip Galfimbul 14677887861.37 GB 0 0 1556985022

18:50

4-Май-19

Российские фильмы 2016-2018 (Новинки русского кино) ·%· Полицейский с Рублёвки. Новогодний беспредел (2018) SATRip Galfimbul 13455974401.25 GB 0 0 1556968216

14:10

4-Май-19

Еще никто не оставлял запись к записи скачать торрент Полицейский с Рублёвки. Новогодний беспредел . Будь первым!

!Обратная связь