Скачать через торрент Тайный мир Анны Ana y Bruno Фильм бесплатно в хорошем качестве torrent

Скачивайте на UnionPeer.org фильмы через торрент без регистрации. Новинки кино в хорошем качестве через торрент. На UnionPeer.org можно скачать через торрент фильмы 2014 и 2015 годов. Самые новые фильмы.

Скачать торрент Тайный мир Анны Ana y Bruno бесплатно через .torrent фильм мультфильм сериал

Статистика раздачи
Размер:  3.17 GB   |    Зарегистрирован:  3 месяца 18 дней   |    .torrent скачан:  119 раз   |   
Раздают:  2  
   
загрузка...
 
Автор Сообщение

Galfimbul

avatar Galfimbul


Тайный мир Анны / Ana y Bruno

Год выпуска: 2017
Жанр: Мультфильм, приключения
Режиссер: Карлос Каррера
В ролях: Марина де Тавира, Дамиан Алькасар, Эктор Бонилья, Сильверио Паласиос, Маурицио Исаак, Рехина Ороско, Рикардо Эскерра, Хульета Эгуррола, Карлос Кобос, Алехандро Вильели

О фильме: В центре сюжета мультфильма находится маленькая девочка Анна. Ее отец пропал, и из-за этого ее мама впала в депрессию. Вместе с ней героиня отправляется на побережье моря, чтобы отдохнуть, но в итоге они оказываются в психиатрической лечебнице. Там Анна находит себе новых друзей, которые являются плодом ее воображения. Вместе с ними девочка сбегает из больницы и отправляется на поиски отца, чтобы помочь своей маме излечить ее грусть. Так начинаются удивительные и увлекательные приключения маленькой героини в большом мире.



Выпущено: Мексика, Anima Estudios, Discreet Arts Productions, Itaca Films
Продолжительность: 01:32:28
Перевод: Дублированный | iTunes

Файл
Качество: WEB-DL 1080p
Контейнер: MKV
Видео: MPEG-4 AVC, 4428 Кбит/с, 1920х802, 25 кадр/с
Аудио: АС3, 6 ch, 384 Кбит/с
Субтитры: Нет
General
Уникальный идентификатор : 215066809200937777018018017454793931975 (0xA1CC5C5CA0C0D6BBBBDD7299DA67BCC7)
Полное имя : C:КиноANNA'S_SECRET_WORLD_2017_WEB-DL_1080p-BLUEBURD.mkv
Формат : Matroska
Версия формата : Version 4 / Version 2
Размер файла : 3.17 GiB
Продолжительность : 1 h 32 min
Общий поток : 4 910 kb/s
Название фильма : ANNA'S_SECRET_WORLD_2017_WEB-DL_1080p-BLUEBURD
Дата кодирования : UTC 2019-05-06 18:19:30
Программа кодирования : mkvmerge v6.9.1 ('Blue Panther') 32bit built on Apr 18 2014 18:15:44
Библиотека кодирования : libebml v1.3.0 + libmatroska v1.4.1
Обложка : Yes
Attachments : cover.png

Video
Идентификатор : 1
Формат : AVC
Формат/Информация : Advanced Video Codec
Профиль формата : High@L4
Настройки формата : CABAC / 5 Ref Frames
Параметр CABAC формата : Yes
Параметр RefFrames формата : 5 frames
Идентификатор кодека : V_MPEG4/ISO/AVC
Продолжительность : 1 h 32 min
Битрейт : 4 428 kb/s
Ширина : 1 920 pixels
Высота : 802 pixels
Соотношение сторон : 2.40:1
Режим частоты кадров : Constant
Частота кадров : 25.000 FPS
Цветовое пространство : YUV
Субдискретизация насыщенности : 4:2:0
Битовая глубина : 8 bits
Тип развёртки : Progressive
Бит/(Пиксели*Кадры) : 0.115
Размер потока : 2.86 GiB (90%)
Заголовок : ANNA'S_SECRET_WORLD_2017_WEB-DL_1080p-BLUEBURD
Язык : English
Default : Yes
Forced : No
Цветовой диапазон : Limited
Основные цвета : BT.709
Характеристики трансфера : BT.709
Коэффициенты матрицы : BT.709

Audio
Идентификатор : 2
Формат : AC-3
Формат/Информация : Audio Coding 3
Идентификатор кодека : A_AC3
Продолжительность : 1 h 32 min
Вид битрейта : Constant
Битрейт : 384 kb/s
Каналы : 6 channels
Расположение каналов : Front: L C R, Side: L R, LFE
Частота : 48.0 kHz
Частота кадров : 31.250 FPS (1536 SPF)
Битовая глубина : 16 bits
Метод сжатия : Lossy
Размер потока : 254 MiB (8%)
Заголовок : [DUB] DD 5.1 @ 384 kbps (iTunes)
Язык : Russian
Default : Yes
Forced : No

Menu
00:00:00.000 : en:Глава 1
00:08:35.120 : en:Глава 2
00:17:34.000 : en:Глава 3
00:24:54.080 : en:Глава 4
00:32:39.520 : en:Глава 5
00:39:25.200 : en:Глава 6
00:44:34.640 : en:Глава 7
00:51:07.160 : en:Глава 8
00:58:01.120 : en:Глава 9
01:05:13.840 : en:Глава 10
01:13:24.400 : en:Глава 11
01:20:37.480 : en:Глава 12
Источник http://BlaTor.org

Трекер:  [ 07-Май-2019 13:10 ]

  

Скачать .torrent

Размер .torrent файла 32 KB


Размер: 3.17 GB
Хэш (hash) релиза: 24fb4761dabb343316deaea46a8ccf7bcb6043ae
Подписка на обновления:

Торренты, похожие на Тайный мир Анны Ana y Bruno скачать торрент

Форум Название Автор Размер S L Добавлен
Мультфильмы 2016-2018 (Новинки мультфильмов) ·%· Тайный мир Анны / Ana y Bruno (2017) WEB-DLRip-AVC | iTunes Galfimbul 780504177744 MB 0 0 1560795625

21:20

17-Июн-19

Мультфильмы 2016-2018 (Новинки мультфильмов) ·%· Тайный мир Анны / Ana y Bruno (2017) WEB-DLRip | iTunes Galfimbul 15629393921.46 GB 0 0 1560691226

16:20

16-Июн-19

Мультфильмы 2016-2018 (Новинки мультфильмов) ·%· Тайный мир Анны / Ana y Bruno (2017) WEB-DLRip от Portablius | iTunes Galfimbul 781934592746 MB 0 0 1557323443

16:50

8-Май-19

Еще никто не оставлял запись к записи скачать торрент Тайный мир Анны Ana y Bruno . Будь первым!

!Обратная связь