Скачать через торрент Укрощение свекрови Фильм бесплатно в хорошем качестве torrent

Скачивайте на UnionPeer.org фильмы через торрент без регистрации. Новинки кино в хорошем качестве через торрент. На UnionPeer.org можно скачать через торрент фильмы 2014 и 2015 годов. Самые новые фильмы.

Скачать торрент Укрощение свекрови бесплатно через .torrent фильм мультфильм сериал

Статистика раздачи
Размер:  747 MB   |    Зарегистрирован:  18 дней   |    .torrent скачан:  37 раз   |   
Раздают:  1  
   
загрузка...
 
Автор Сообщение

Galfimbul

avatar Galfimbul


Укрощение свекрови



[b]Год выхода:
2019
Жанр: Комедия, мелодрама
Режиссеры: Владимир Басов мл., Ольга Басова
В ролях: Елена Валюшкина, Елизавета Арзамасова, Артём Крылов, Кристина Бабушкина, Владимир Стержаков, Теймураз Тания, Алексей Шевченков, Александра Скачкова, Александр Сотников, Владимир Басов (младший), Алексей Травкин, Сабина Аскарова, Дарья Филиппова (II), Мария Притыка, Максим Казаков

О фильме: Инга и Андрей были бы самой счастливой парой, если бы не одно «но». Мама! А точнее Анна Михайловна — невыносимая свекровь и домашний тиран. Жить в отдельной квартире у молодых супругов никак не получается — мама требует бесконечного внимания и заботы. А поскольку у мамы больное сердце, Андрей потакает всем ее капризам. И конечно, невестку «мама» не переносит. Однажды измученной Инге приходит в голову идея, как раз и навсегда укротить свекровь: ведь все познается в сравнении. И Инга решает… найти себе замену. Причем замену ужасающую — с тремя детьми и бывшим мужем-уголовником. Сыграть новую избранницу Андрея должна будет тетка Инги — Алиса. Однако все идет не по плану…


Страна: Россия
Студия: Арт-Экспресс
Продолжительность: 01:41:22
Перевод: Не требуется
Субтитры: нет

Файл
Кодек: XviD
Качество: HDTVRip
Видео: 624x352 (1.77:1), 25 fps, XviD build 73 ~892 kbps avg, 0.16 bit/pixel
Звук: 48 kHz, MPEG Layer 3, 2 ch, ~128.00 kbps avg
General
Complete name : Ukroshchenie.svekrovi.2019.HDTVRip.Portablius.avi
Format : AVI
Format/Info : Audio Video Interleave
File size : 747 MiB
Duration : 1 h 41 min
Overall bit rate : 1 030 kb/s
Writing application : VirtualDubMod 1.5.10.3 | www.virtualdub-fr.org || (build 2550/release)
Writing library : VirtualDubMod build 2550/release

Video
ID : 0
Format : MPEG-4 Visual
Format profile : Advanced Simple@L5
Format settings : BVOP1 / Custom Matrix
Format settings, BVOP : 1
Format settings, QPel : No
Format settings, GMC : No warppoints
Format settings, Matrix : Custom
Codec ID : XVID
Codec ID/Hint : XviD
Duration : 1 h 41 min
Bit rate : 893 kb/s
Width : 624 pixels
Height : 352 pixels
Display aspect ratio : 16:9
Frame rate : 25.000 FPS
Color space : YUV
Chroma subsampling : 4:2:0
Bit depth : 8 bits
Scan type : Progressive
Compression mode : Lossy
Bits/(Pixel*Frame) : 0.163
Stream size : 647 MiB (87%)
Writing library : XviD 73

Audio
ID : 1
Format : MPEG Audio
Format version : Version 1
Format profile : Layer 3
Codec ID : 55
Codec ID/Hint : MP3
Duration : 1 h 41 min
Bit rate mode : Constant
Bit rate : 128 kb/s
Channel(s) : 2 channels
Sampling rate : 48.0 kHz
Frame rate : 41.667 FPS (1152 SPF)
Compression mode : Lossy
Stream size : 92.8 MiB (12%)
Alignment : Aligned on interleaves
Interleave, duration : 40 ms (1.00 video frame)
Interleave, preload duratio : 504 ms
Writing library : LAME3.99r
Encoding settings : -m s -V 4 -q 2 -lowpass 17 -b 128
Источник http://BlaTor.org

Трекер:  [ 08-Май-2019 08:30 ]

  

Скачать .torrent

Размер .torrent файла 15 KB


Размер: 747 MB
Хэш (hash) релиза: 54529dd6ae5da4557f2975bf08fded6c3996cc8f
Подписка на обновления:

Еще никто не оставлял запись к записи скачать торрент Укрощение свекрови . Будь первым!

!Обратная связь