Скачать через торрент Обитатели холмов Watership Down Фильм бесплатно в хорошем качестве torrent

Скачивайте на UnionPeer.org фильмы через торрент без регистрации. Новинки кино в хорошем качестве через торрент. На UnionPeer.org можно скачать через торрент фильмы 2014 и 2015 годов. Самые новые фильмы.

Скачать торрент Обитатели холмов Watership Down бесплатно через .torrent фильм мультфильм сериал

Статистика раздачи
Размер:  2.95 GB   |    Зарегистрирован:  3 месяца 14 дней   |    .torrent скачан:  88 раз   |   
Раздают:  1  
   
загрузка...
 
Автор Сообщение

Galfimbul

avatar Galfimbul


Обитатели холмов / Watership Down

Год выхода: 2018
Жанр: мультфильм, фэнтези, приключения
Режиссер: Ноам Мурро
В ролях: Джеймс МакЭвой (Hazel), Николас Холт (Fiver), Джон Бойега (Bigwig), Бен Кингсли (General Woundwort), Том Уилкинсон (Threarah), Джемма Артертон (Clover), Питер Капальди (Kehaar), Оливия Колман (Strawberry), Макензи Крук (Hawkbit), Энн-Мэри Дафф (Hyzenthlay), Тэрон Эджертон (El-Ahrairah), Фредди Фокс (Captain Holly)

История, разворачивающаяся на фоне безмятежных деревенских пейзажей южной Англии, рассказывает о приключениях, храбрости и выживании группы кроликов с тех пор, как их дом был уничтожен. Под предводительством двух отважных братьев их путь пролегает от родного участка в Сэндлфорде через душераздирающие испытания, исходящие со стороны хищников и неприятелей, к земле обетованной и более совершенному обществу.



Страна: Ирландия, Великобритания, США
Студия: BBC, Netflix, Brown Bag Films, Biscuit Filmworks
Продолжительность: 00:51:08, 00:50:42, 00:51:05, 00:51:13
Перевод: Дубляж
Файл
Кодек: H.264
Качество: WEB-DLRip-720 от SuperMin
Видео: 1280x640 (2:1), 1500-2000 kbps, 25.000 fps
Звук: Русский (AC3, 6 ch, 384 Кбит/с)
Субтитры: Русские
x264 [info]: frame I:697 Avg QP:17.36 size: 97693
x264 [info]: frame P:17267 Avg QP:19.17 size: 21629
x264 [info]: frame B:58756 Avg QP:22.08 size: 4911
x264 [info]: consecutive B-frames: 3.0% 2.6% 11.0% 17.0% 12.8% 46.4% 3.1% 3.9% 0.3%
x264 [total]: encoded 76720 frames, 11.34 fps, 1903.36 kb/s

General
Unique ID : 239963953121256202458298568901573162277 (0xB4876054796EB909CDE4E46192673525)
Complete name : G:ОБИТАТЕЛИ ХОЛМОВ1 - Обитатели холмов. Путешествие.mkv
Format : Matroska
Format version : Version 4
File size : 838 MiB
Duration : 51 min 8 s
Overall bit rate : 2 290 kb/s
Movie name : Обитатели холмов / Watership Down (2018) Путешествие | The Journey - #LORDKILL#
Encoded date : UTC 2019-05-10 08:48:41
Writing application : mkvmerge v21.0.0 ('Tardigrades Will Inherit The Earth') 64-bit
Writing library : libebml v1.3.5 + libmatroska v1.4.8
Cover : Yes
Attachments : cover.jpg

Video
ID : 1
Format : AVC
Format/Info : Advanced Video Codec
Format profile : High@L4.1
Format settings : CABAC / 9 Ref Frames
Format settings, CABAC : Yes
Format settings, ReFrames : 9 frames
Codec ID : V_MPEG4/ISO/AVC
Duration : 51 min 8 s
Bit rate : 1 903 kb/s
Width : 1 280 pixels
Height : 640 pixels
Display aspect ratio : 2.000
Frame rate mode : Constant
Frame rate : 25.000 FPS
Color space : YUV
Chroma subsampling : 4:2:0
Bit depth : 8 bits
Scan type : Progressive
Bits/(Pixel*Frame) : 0.093
Stream size : 696 MiB (83%)
Writing library : x264 core 146 r2538 121396c
Encoding settings : cabac=1 / ref=9 / deblock=1:-1:-1 / analyse=0x3:0x113 / me=umh / subme=10 / psy=1 / psy_rd=1.00:0.15 / mixed_ref=1 / me_range=32 / chroma_me=1 / trellis=2 / 8x8dct=1 / cqm=0 / deadzone=21,11 / fast_pskip=1 / chroma_qp_offset=-3 / threads=12 / lookahead_threads=2 / sliced_threads=0 / nr=0 / decimate=1 / interlaced=0 / bluray_compat=0 / constrained_intra=0 / bframes=8 / b_pyramid=2 / b_adapt=2 / b_bias=0 / direct=1 / weightb=1 / open_gop=0 / weightp=2 / keyint=240 / keyint_min=24 / scenecut=40 / intra_refresh=0 / rc=crf / mbtree=0 / crf=20.5 / qcomp=0.60 / qpmin=0 / qpmax=69 / qpstep=4 / ip_ratio=1.40 / pb_ratio=1.30 / aq=1:1.00
Language : English
Default : Yes
Forced : No

Audio
ID : 2
Format : AC-3
Format/Info : Audio Coding 3
Commercial name : Dolby Digital
Codec ID : A_AC3
Duration : 51 min 8 s
Bit rate mode : Constant
Bit rate : 384 kb/s
Channel(s) : 6 channels
Channel layout : L R C LFE Ls Rs
Sampling rate : 48.0 kHz
Frame rate : 31.250 FPS (1536 SPF)
Bit depth : 16 bits
Compression mode : Lossy
Stream size : 140 MiB (17%)
Title : Дубляж
Language : Russian
Service kind : Complete Main
Default : Yes
Forced : No

Text #1
ID : 3
Format : UTF-8
Codec ID : S_TEXT/UTF8
Codec ID/Info : UTF-8 Plain Text
Duration : 48 min 58 s
Bit rate : 0 b/s
Count of elements : 5
Stream size : 200 Bytes (0%)
Title : Forced
Language : Russian
Default : Yes
Forced : Yes

Text #2
ID : 4
Format : UTF-8
Codec ID : S_TEXT/UTF8
Codec ID/Info : UTF-8 Plain Text
Duration : 48 min 58 s
Bit rate : 99 b/s
Count of elements : 593
Stream size : 35.6 KiB (0%)
Title : Full
Language : Russian
Default : No
Forced : No
x264 [info]: frame I:728 Avg QP:16.69 size: 88648
x264 [info]: frame P:16715 Avg QP:18.49 size: 19206
x264 [info]: frame B:58627 Avg QP:21.49 size: 4169
x264 [info]: consecutive B-frames: 2.8% 1.9% 10.1% 17.6% 12.7% 46.4% 3.7% 4.5% 0.3%
x264 [total]: encoded 76070 frames, 11.63 fps, 1656.29 kb/s

General
Unique ID : 196070204711993594549137863553798992157 (0x9381BF72D0C8650B3BF6211D595D711D)
Complete name : G:ОБИТАТЕЛИ ХОЛМОВ2 - Обитатели холмов. Набег.mkv
Format : Matroska
Format version : Version 4
File size : 741 MiB
Duration : 50 min 42 s
Overall bit rate : 2 043 kb/s
Movie name : Обитатели холмов / Watership Down (2018) Набег | The Raid - #LORDKILL#
Encoded date : UTC 2019-05-10 08:59:58
Writing application : mkvmerge v21.0.0 ('Tardigrades Will Inherit The Earth') 64-bit
Writing library : libebml v1.3.5 + libmatroska v1.4.8
Cover : Yes
Attachments : cover.jpg

Video
ID : 1
Format : AVC
Format/Info : Advanced Video Codec
Format profile : High@L4.1
Format settings : CABAC / 9 Ref Frames
Format settings, CABAC : Yes
Format settings, ReFrames : 9 frames
Codec ID : V_MPEG4/ISO/AVC
Duration : 50 min 42 s
Bit rate : 1 656 kb/s
Width : 1 280 pixels
Height : 640 pixels
Display aspect ratio : 2.000
Frame rate mode : Constant
Frame rate : 25.000 FPS
Color space : YUV
Chroma subsampling : 4:2:0
Bit depth : 8 bits
Scan type : Progressive
Bits/(Pixel*Frame) : 0.081
Stream size : 601 MiB (81%)
Writing library : x264 core 146 r2538 121396c
Encoding settings : cabac=1 / ref=9 / deblock=1:-1:-1 / analyse=0x3:0x113 / me=umh / subme=10 / psy=1 / psy_rd=1.00:0.15 / mixed_ref=1 / me_range=32 / chroma_me=1 / trellis=2 / 8x8dct=1 / cqm=0 / deadzone=21,11 / fast_pskip=1 / chroma_qp_offset=-3 / threads=12 / lookahead_threads=2 / sliced_threads=0 / nr=0 / decimate=1 / interlaced=0 / bluray_compat=0 / constrained_intra=0 / bframes=8 / b_pyramid=2 / b_adapt=2 / b_bias=0 / direct=1 / weightb=1 / open_gop=0 / weightp=2 / keyint=240 / keyint_min=24 / scenecut=40 / intra_refresh=0 / rc=crf / mbtree=0 / crf=20.5 / qcomp=0.60 / qpmin=0 / qpmax=69 / qpstep=4 / ip_ratio=1.40 / pb_ratio=1.30 / aq=1:1.00
Language : English
Default : Yes
Forced : No

Audio
ID : 2
Format : AC-3
Format/Info : Audio Coding 3
Commercial name : Dolby Digital
Codec ID : A_AC3
Duration : 50 min 42 s
Bit rate mode : Constant
Bit rate : 384 kb/s
Channel(s) : 6 channels
Channel layout : L R C LFE Ls Rs
Sampling rate : 48.0 kHz
Frame rate : 31.250 FPS (1536 SPF)
Bit depth : 16 bits
Compression mode : Lossy
Stream size : 139 MiB (19%)
Title : Дубляж
Language : Russian
Service kind : Complete Main
Default : Yes
Forced : No

Text #1
ID : 3
Format : UTF-8
Codec ID : S_TEXT/UTF8
Codec ID/Info : UTF-8 Plain Text
Duration : 48 min 35 s
Bit rate : 0 b/s
Count of elements : 5
Stream size : 214 Bytes (0%)
Title : Forced
Language : Russian
Default : Yes
Forced : Yes

Text #2
ID : 4
Format : UTF-8
Codec ID : S_TEXT/UTF8
Codec ID/Info : UTF-8 Plain Text
Duration : 48 min 36 s
Bit rate : 88 b/s
Count of elements : 526
Stream size : 31.4 KiB (0%)
Title : Full
Language : Russian
Default : No
Forced : No
x264 [info]: frame I:699 Avg QP:16.68 size: 81993
x264 [info]: frame P:15870 Avg QP:18.43 size: 17000
x264 [info]: frame B:60051 Avg QP:21.34 size: 3591
x264 [info]: consecutive B-frames: 2.3% 1.3% 8.1% 15.1% 10.9% 52.7% 4.2% 5.0% 0.5%
x264 [total]: encoded 76620 frames, 11.07 fps, 1416.75 kb/s

General
Unique ID : 150819776476772515626266480204215377613 (0x7176D51658DF67505E9122FC8A565ECD)
Complete name : G:ОБИТАТЕЛИ ХОЛМОВ3 - Обитатели холмов. Побег.mkv
Format : Matroska
Format version : Version 4
File size : 659 MiB
Duration : 51 min 5 s
Overall bit rate : 1 803 kb/s
Movie name : Обитатели холмов / Watership Down (2018) Побег | The Escape - #LORDKILL#
Encoded date : UTC 2019-05-10 10:52:09
Writing application : mkvmerge v21.0.0 ('Tardigrades Will Inherit The Earth') 64-bit
Writing library : libebml v1.3.5 + libmatroska v1.4.8
Cover : Yes
Attachments : cover.jpg

Video
ID : 1
Format : AVC
Format/Info : Advanced Video Codec
Format profile : High@L4.1
Format settings : CABAC / 9 Ref Frames
Format settings, CABAC : Yes
Format settings, ReFrames : 9 frames
Codec ID : V_MPEG4/ISO/AVC
Duration : 51 min 4 s
Bit rate : 1 417 kb/s
Width : 1 280 pixels
Height : 640 pixels
Display aspect ratio : 2.000
Frame rate mode : Constant
Frame rate : 25.000 FPS
Color space : YUV
Chroma subsampling : 4:2:0
Bit depth : 8 bits
Scan type : Progressive
Bits/(Pixel*Frame) : 0.069
Stream size : 518 MiB (79%)
Writing library : x264 core 146 r2538 121396c
Encoding settings : cabac=1 / ref=9 / deblock=1:-1:-1 / analyse=0x3:0x113 / me=umh / subme=10 / psy=1 / psy_rd=1.00:0.15 / mixed_ref=1 / me_range=32 / chroma_me=1 / trellis=2 / 8x8dct=1 / cqm=0 / deadzone=21,11 / fast_pskip=1 / chroma_qp_offset=-3 / threads=12 / lookahead_threads=2 / sliced_threads=0 / nr=0 / decimate=1 / interlaced=0 / bluray_compat=0 / constrained_intra=0 / bframes=8 / b_pyramid=2 / b_adapt=2 / b_bias=0 / direct=1 / weightb=1 / open_gop=0 / weightp=2 / keyint=240 / keyint_min=24 / scenecut=40 / intra_refresh=0 / rc=crf / mbtree=0 / crf=20.5 / qcomp=0.60 / qpmin=0 / qpmax=69 / qpstep=4 / ip_ratio=1.40 / pb_ratio=1.30 / aq=1:1.00
Language : English
Default : Yes
Forced : No

Audio
ID : 2
Format : AC-3
Format/Info : Audio Coding 3
Commercial name : Dolby Digital
Codec ID : A_AC3
Duration : 51 min 5 s
Bit rate mode : Constant
Bit rate : 384 kb/s
Channel(s) : 6 channels
Channel layout : L R C LFE Ls Rs
Sampling rate : 48.0 kHz
Frame rate : 31.250 FPS (1536 SPF)
Bit depth : 16 bits
Compression mode : Lossy
Stream size : 140 MiB (21%)
Title : Дубляж
Language : Russian
Service kind : Complete Main
Default : Yes
Forced : No

Text #1
ID : 3
Format : UTF-8
Codec ID : S_TEXT/UTF8
Codec ID/Info : UTF-8 Plain Text
Duration : 48 min 56 s
Bit rate : 0 b/s
Count of elements : 5
Stream size : 208 Bytes (0%)
Title : Forced
Language : Russian
Default : Yes
Forced : Yes

Text #2
ID : 4
Format : UTF-8
Codec ID : S_TEXT/UTF8
Codec ID/Info : UTF-8 Plain Text
Duration : 48 min 56 s
Bit rate : 104 b/s
Count of elements : 584
Stream size : 37.6 KiB (0%)
Title : Full
Language : Russian
Default : No
Forced : No
x264 [info]: frame I:691 Avg QP:17.07 size: 83159
x264 [info]: frame P:16475 Avg QP:18.92 size: 20848
x264 [info]: frame B:59654 Avg QP:21.92 size: 4533
x264 [info]: consecutive B-frames: 2.7% 1.6% 8.8% 15.3% 12.3% 51.7% 3.4% 3.8% 0.3%
x264 [total]: encoded 76820 frames, 10.87 fps, 1747.85 kb/s

General
Unique ID : 90519880914544748506422203366733547174 (0x44197EB32E103E7995B17985684886A6)
Complete name : G:ОБИТАТЕЛИ ХОЛМОВ4 - Обитатели холмов. Осада.mkv
Format : Matroska
Format version : Version 4
File size : 782 MiB
Duration : 51 min 13 s
Overall bit rate : 2 134 kb/s
Movie name : Обитатели холмов / Watership Down (2018) Осада | The Siege - #LORDKILL#
Encoded date : UTC 2019-05-10 13:28:21
Writing application : mkvmerge v21.0.0 ('Tardigrades Will Inherit The Earth') 64-bit
Writing library : libebml v1.3.5 + libmatroska v1.4.8
Cover : Yes
Attachments : cover.jpg

Video
ID : 1
Format : AVC
Format/Info : Advanced Video Codec
Format profile : High@L4.1
Format settings : CABAC / 9 Ref Frames
Format settings, CABAC : Yes
Format settings, ReFrames : 9 frames
Codec ID : V_MPEG4/ISO/AVC
Duration : 51 min 12 s
Bit rate : 1 748 kb/s
Width : 1 280 pixels
Height : 640 pixels
Display aspect ratio : 2.000
Frame rate mode : Constant
Frame rate : 25.000 FPS
Color space : YUV
Chroma subsampling : 4:2:0
Bit depth : 8 bits
Scan type : Progressive
Bits/(Pixel*Frame) : 0.085
Stream size : 640 MiB (82%)
Writing library : x264 core 146 r2538 121396c
Encoding settings : cabac=1 / ref=9 / deblock=1:-1:-1 / analyse=0x3:0x113 / me=umh / subme=10 / psy=1 / psy_rd=1.00:0.15 / mixed_ref=1 / me_range=32 / chroma_me=1 / trellis=2 / 8x8dct=1 / cqm=0 / deadzone=21,11 / fast_pskip=1 / chroma_qp_offset=-3 / threads=12 / lookahead_threads=2 / sliced_threads=0 / nr=0 / decimate=1 / interlaced=0 / bluray_compat=0 / constrained_intra=0 / bframes=8 / b_pyramid=2 / b_adapt=2 / b_bias=0 / direct=1 / weightb=1 / open_gop=0 / weightp=2 / keyint=240 / keyint_min=24 / scenecut=40 / intra_refresh=0 / rc=crf / mbtree=0 / crf=20.5 / qcomp=0.60 / qpmin=0 / qpmax=69 / qpstep=4 / ip_ratio=1.40 / pb_ratio=1.30 / aq=1:1.00
Language : English
Default : Yes
Forced : No

Audio
ID : 2
Format : AC-3
Format/Info : Audio Coding 3
Commercial name : Dolby Digital
Codec ID : A_AC3
Duration : 51 min 13 s
Bit rate mode : Constant
Bit rate : 384 kb/s
Channel(s) : 6 channels
Channel layout : L R C LFE Ls Rs
Sampling rate : 48.0 kHz
Frame rate : 31.250 FPS (1536 SPF)
Bit depth : 16 bits
Compression mode : Lossy
Stream size : 141 MiB (18%)
Title : Дубляж
Language : Russian
Service kind : Complete Main
Default : Yes
Forced : No

Text #1
ID : 3
Format : UTF-8
Codec ID : S_TEXT/UTF8
Codec ID/Info : UTF-8 Plain Text
Duration : 49 min 2 s
Bit rate : 0 b/s
Count of elements : 5
Stream size : 214 Bytes (0%)
Title : Forced
Language : Russian
Default : Yes
Forced : Yes

Text #2
ID : 4
Format : UTF-8
Codec ID : S_TEXT/UTF8
Codec ID/Info : UTF-8 Plain Text
Duration : 49 min 2 s
Bit rate : 71 b/s
Count of elements : 442
Stream size : 25.9 KiB (0%)
Title : Full
Language : Russian
Default : No
Forced : No
Источник http://BlaTor.org

Трекер:  [ 10-Май-2019 17:00 ]

  

Скачать .torrent

Размер .torrent файла 15 KB


Размер: 2.95 GB
Хэш (hash) релиза: a3621681f6e71718b775bdeacfdef627ba12a24a
Подписка на обновления:

Торренты, похожие на Обитатели холмов Watership Down скачать торрент

Форум Название Автор Размер S L Добавлен
Мультфильмы 2016-2018 (Новинки мультфильмов) ·%· Обитатели холмов / Watership Down [S01] (2018) WEB-DLRip | Jaskier Galfimbul 27422289922.55 GB 0 0 1549807885

17:11

10-Фев-19

Мультфильмы 2016-2018 (Новинки мультфильмов) ·%· Обитатели холмов / Watership Down [S01] (2018) WEB-DL 720p | Jaskier Galfimbul 53351304424.97 GB 0 0 1549807849

17:10

10-Фев-19

Мультфильмы 2016-2018 (Новинки мультфильмов) ·%· Обитатели холмов / Watership Down [S01] (2018) WEBRip 1080p | NewStudio Galfimbul 97457687769.08 GB 0 0 1547982020

14:00

20-Янв-19

Мультфильмы 2016-2018 (Новинки мультфильмов) ·%· Обитатели холмов / Watership Down [S01] (2018) WEBRip 1080p | Netflix Galfimbul 92097437178.58 GB 0 0 1545679967

22:32

24-Дек-18

Мультфильмы 2016-2018 (Новинки мультфильмов) ·%· Обитатели холмов / Watership Down [S01] (2018) WEBRip | Netflix Galfimbul 30333296642.83 GB 0 0 1545653532

15:12

24-Дек-18

Мультфильмы до 2016 ·· Обитатели холмов / Уотершипские холмы / Корабельный Холм / Watership Down (Мартин Розен / Martin Rosen) [1978, мультфильм, фэнтези, драма, приключения, семейный, HDRip] AVO (Латышев) Galfimbul 15701094401.46 GB 0 0 1320746039

12:53

8-Ноя-11

Мультфильмы до 2016 ·· Обитатели холмов / Уотершипские холмы / Корабельный Холм / Опаснейшее путешествие / Watership Down (Мартин Розен / Martin Rosen) [1978, Великобритания, мультфильм, драма, приключения, DVD9 (Custom)] AVO + AVO + Original eng + Sub eng Galfimbul 83637657607.79 GB 0 0 1427134434

21:13

23-Мар-15

Еще никто не оставлял запись к записи скачать торрент Обитатели холмов Watership Down . Будь первым!

!Обратная связь