Скачать через торрент Легенда о воюющих царствах Jue Фильм бесплатно в хорошем качестве torrent

Скачивайте на UnionPeer.org фильмы через торрент без регистрации. Новинки кино в хорошем качестве через торрент. На UnionPeer.org можно скачать через торрент фильмы 2014 и 2015 годов. Самые новые фильмы.

Скачать торрент Легенда о воюющих царствах Jue бесплатно через .torrent фильм мультфильм сериал

Статистика раздачи
Размер:  4.08 GB   |    Зарегистрирован:  3 месяца 11 дней   |    .torrent скачан:  326 раз   |   
Раздают:  4  
   
загрузка...
 
Автор Сообщение

Galfimbul

avatar Galfimbul


Легенда о воюющих царствах /Jue ji

Год выхода: 2016
Жанр: Приключения, Фэнтези
Режиссер: Го Цзинмин
В ролях: Фань Бинбин, Чени Чэнь, Крис У,Уильям Чан, Эмбер Ко, Джелли Линь, Ян Ми, Рой Ван, Кевин Янь, Тони Ван

О фильме:
Деревенский парнишка Чилин работал на подхвате в местной таверне, когда в город пришли столичные маги-алхимики. Маги собирались поймать опасное чудовище — ледяного енота — но слегка ошиблись с животным и заплатили за это жизнью.

Но зато в эту страшную ночь, погубившую множество жизней, у Чилина проснулись магические способности. Он случайно обуздал зверя, после чего был взят в ученики одним из верховных алхимиков Гланорта — Инь Чэнем (Силвером). Теперь деревенский простачок оказался вовлечен в самое пекло политических интриг и бесконечной борьбы магов за власть над континентом. Власть, способную сокрушить всё мироздание.


Страна: Китай, Камбоджа
Продолжительность: 01:57:33
Перевод:
1. Русская (многоголосая, дублированная) - СВ-Дубль
2. Английская (многоголосая, дублированная)

Файл
Кодек: H264
Качество: WEB-DL 1080p
Видео: 4 578 kb/s, 1912x800, 23.976fps
Звук:
1. rus, 192 kb/s, ac3, 48000 Hz, stereo
2. eng, 192 kb/s, ac3, 48000 Hz, stereo
Субтитры: нет
General
Unique ID : 233339435036099094766701520093579106665 (0xAF8B8A5F2431DB449B07AA542B8CD969)
Complete name : d:DownloadsЛегенда о воюющих царствах.2016.WEB-DL.1080p.mkv
Format : Matroska
Format version : Version 4 / Version 2
File size : 4.08 GiB
Duration : 1 h 57 min
Overall bit rate : 4 962 kb/s
Encoded date : UTC 2019-05-12 07:50:43
Writing application : mkvmerge v8.3.0 ('Over the Horizon') 64bit
Writing library : libebml v1.3.1 + libmatroska v1.4.2

Video
ID : 1
Format : AVC
Format/Info : Advanced Video Codec
Format profile : High@L4
Format settings : CABAC / 5 Ref Frames
Format settings, CABAC : Yes
Format settings, ReFrames : 5 frames
Codec ID : V_MPEG4/ISO/AVC
Duration : 1 h 57 min
Bit rate : 4 578 kb/s
Width : 1 912 pixels
Height : 800 pixels
Display aspect ratio : 2.40:1
Frame rate mode : Constant
Frame rate : 23.976 FPS
Color space : YUV
Chroma subsampling : 4:2:0
Bit depth : 8 bits
Scan type : Progressive
Bits/(Pixel*Frame) : 0.125
Stream size : 3.76 GiB (92%)
Language : Chinese
Default : Yes
Forced : No
Color range : Limited
Color primaries : BT.709
Transfer characteristics : BT.709
Matrix coefficients : BT.709

Audio #1
ID : 2
Format : AC-3
Format/Info : Audio Coding 3
Codec ID : A_AC3
Duration : 1 h 57 min
Bit rate mode : Constant
Bit rate : 192 kb/s
Channel(s) : 2 channels
Channel positions : Front: L R
Sampling rate : 48.0 kHz
Frame rate : 31.250 FPS (1536 SPF)
Bit depth : 16 bits
Compression mode : Lossy
Stream size : 162 MiB (4%)
Title : СВ-Дубль
Language : Russian
Service kind : Complete Main
Default : Yes
Forced : No

Audio #2
ID : 3
Format : AC-3
Format/Info : Audio Coding 3
Codec ID : A_AC3
Duration : 1 h 57 min
Bit rate mode : Constant
Bit rate : 192 kb/s
Channel(s) : 2 channels
Channel positions : Front: L R
Sampling rate : 48.0 kHz
Frame rate : 31.250 FPS (1536 SPF)
Bit depth : 16 bits
Compression mode : Lossy
Stream size : 161 MiB (4%)
Title : Английская
Language : English
Service kind : Complete Main
Default : No
Forced : No

Menu
00:00:00.000 : en:1
00:10:43.000 : en:2
00:21:53.000 : en:3
00:32:32.000 : en:4
00:44:36.000 : en:5
00:54:43.000 : en:6
01:02:36.000 : en:7
01:11:20.000 : en:8
01:21:43.000 : en:9
01:28:43.000 : en:10
01:38:26.000 : en:11
01:52:47.000 : en:12
Источник http://BlaTor.org

Трекер:  [ 12-Май-2019 11:10 ]

  

Скачать .torrent

Размер .torrent файла 10 KB


Размер: 4.08 GB
Хэш (hash) релиза: 8ef64d38295efba719dcbd8bf67ce13782ad1947
Подписка на обновления:

Торренты, похожие на Легенда о воюющих царствах Jue скачать торрент

Форум Название Автор Размер S L Добавлен
Мультфильмы 2016-2018 (Новинки мультфильмов) ·%· Легенда о воюющих царствах / Jue ji (2016) WEB-DLRip 720p от SuperMin | D | СВ-Дубль Galfimbul 27207084422.53 GB 1 2 1564823446

12:10

3-Авг-19

Еще никто не оставлял запись к записи скачать торрент Легенда о воюющих царствах Jue . Будь первым!

!Обратная связь