Скачать через торрент Леди Баг и Супер-кот Miraculous: Tales of Ladybug & Cat Noir Фильм бесплатно в хорошем качестве torrent

Скачивайте на UnionPeer.org фильмы через торрент без регистрации. Новинки кино в хорошем качестве через торрент. На UnionPeer.org можно скачать через торрент фильмы 2014 и 2015 годов. Самые новые фильмы.

Скачать торрент Леди Баг и Супер-кот Miraculous: Tales of Ladybug & Cat Noir бесплатно через .torrent фильм мультфильм сериал

Статистика раздачи
Размер:  4.98 GB   |    Зарегистрирован:  3 месяца 12 дней   |    .torrent скачан:  68 раз   |   
Раздают:  1  
   
загрузка...
 
Автор Сообщение

Galfimbul

avatar Galfimbul


Леди Баг и Супер-кот /Miraculous: Tales of Ladybug & Cat Noir

Год выхода: 2018-2019
Жанр: детский, семейный, приключения, комедия
Режиссер: Томас Аструк / Thomas Astruc
В ролях: Anouck Hautbois, Benjamin Bollen, Antoine Tome, Marie Nonenmacher, Thierry Kazazian, Fanny Bloc, Marie Chevalot, Alexandre N'guyen

О фильме:
Адриан и Маринетт — старшеклассники, почти как все остальные. При малейшей угрозе Парижу они становятся ЛедиБаг и Котом Нуаром. Их миссия — захватить акум (тёмных бабочек), которые превращают людей в супер-злодеев. Когда герои объединяются, каждый из них не знает истинной личности другого. Маринетт не знает, что Кот Нуар на самом деле Адриан — мальчик в которого она тайно влюблена, а Адриан, чьё сердце бьётся ради ЛедиБаг, не знает, что под маской супер-героини скрывается милая и ветреная одноклассница.

Страна: Франция
Продолжительность: ~00:22:00 серия
Перевод: Любительский многоголосый закадровый [студия Animaunt]

Файл
Кодек: AVC / AAC
Качество: WEBRip 720p
Видео: MPEG-4 AVC, ~ 4045 Кбит/с, 1280x720
Звук: AAC, 2 ch, 192 Кбит/с
Субтитры: отсутствуют

SAMPLE
General
Complete name : MiraculousLadyBug3х1AniMauntKinovselennaya.mp4
Format : MPEG-4
Format profile : Base Media
Codec ID : isom (isom/iso2/mp41)
File size : 652 MiB
Duration : 21 min 27 s
Overall bit rate mode : Constant
Overall bit rate : 4 247 kb/s
Encoded date : UTC 1904-01-01 00:00:00
Tagged date : UTC 1904-01-01 00:00:00
Writing application : Lavf57.71.100

Video
ID : 1
Format : MPEG-4 Visual
Format profile : Advanced Simple@L1
Format settings, BVOP : No
Format settings, QPel : No
Format settings, GMC : No warppoints
Format settings, Matrix : Default (H.263)
Codec ID : 20
Duration : 21 min 27 s
Bit rate mode : Constant
Bit rate : 4 045 kb/s
Width : 1 280 pixels
Height : 720 pixels
Display aspect ratio : 16:9
Frame rate mode : Constant
Frame rate : 29.970 (30000/1001) FPS
Color space : YUV
Chroma subsampling : 4:2:0
Bit depth : 8 bits
Scan type : Progressive
Compression mode : Lossy
Bits/(Pixel*Frame) : 0.146
Stream size : 621 MiB (95%)
Writing library : Lavc57.89.100
Encoded date : UTC 1904-01-01 00:00:00
Tagged date : UTC 1904-01-01 00:00:00

Audio
ID : 2
Format : AAC
Format/Info : Advanced Audio Codec
Format profile : LC
Codec ID : 40
Duration : 21 min 27 s
Bit rate mode : Constant
Bit rate : 192 kb/s
Channel(s) : 2 channels
Channel positions : Front: L R
Sampling rate : 44.1 kHz
Frame rate : 43.066 FPS (1024 spf)
Compression mode : Lossy
Stream size : 29.9 MiB (5%)
Default : Yes
Alternate group : 1
Encoded date : UTC 1904-01-01 00:00:00
Tagged date : UTC 1904-01-01 00:00:00
Внимание, присутствуют вставки текстовой рекламы.
Источник http://BlaTor.org

Трекер:  [ 13-Май-2019 10:10 ]

  

Скачать .torrent

Размер .torrent файла 13 KB


Размер: 4.98 GB
Хэш (hash) релиза: ccb9bc4bac9d4e80daa7bc9db74ff4a610e77af7
Подписка на обновления:

Еще никто не оставлял запись к записи скачать торрент Леди Баг и Супер-кот Miraculous: Tales of Ladybug & Cat Noir . Будь первым!

!Обратная связь