Скачать через торрент В объятиях лжи Greta Фильм бесплатно в хорошем качестве torrent

Скачивайте на UnionPeer.org фильмы через торрент без регистрации. Новинки кино в хорошем качестве через торрент. На UnionPeer.org можно скачать через торрент фильмы 2014 и 2015 годов. Самые новые фильмы.

Скачать торрент В объятиях лжи Greta бесплатно через .torrent фильм мультфильм сериал

Статистика раздачи
Размер:  3.56 GB   |    Зарегистрирован:  12 дней   |    .torrent скачан:  53 раза   |   
Раздают:  2  
   
загрузка...
 
Автор Сообщение

Galfimbul

avatar Galfimbul




В объятиях лжи /Greta

Год выхода: 2018
Жанр: Ужасы
, триллер, драма, детектив
Режиссер: Нил Джордан
В ролях: Изабель Юппер, Хлоя Грейс Морец, Майка Монро, Джейн Перри, Джефф Хиллер, Паркер Сойерс, Брэндон Ли Сирс, Артур Ли, Роза Эскода, Джессика Предди



О фильме: Одинокая девушка, недавно переехавшая на Манхэттен, случайно встречается с загадочной вдовой. Между ними завязывается дружба, и необычная знакомая окружает юную подругу вниманием и заботой. Но вскоре одна из них поймет, что оказалась в объятиях лжи…

Страна: Ирландия, США
Студия: Sidney Kimmel Entertainment, Lawrence Bender Productions, Little Wave Productions
Продолжительность: 01:38:15
Перевод: Дублированный | iTunes

Качество: WEB-DL 720p
Видео: MPEG-4 AVC, 1280x536, 4033 Kbit/s, 24 fps
Звук:
Аудио #01: 48 kHz, AC3, 5.1, 384 Kbps | iTunes | RUS |
Аудио #02: 48 kHz, AC3, 5.1, 384 Kbps | iTunes | UKR |
Аудио #03: 48 kHz, AC3, 5.1, 384 Kbps | Оригинал | ENG |
Субтитры: Русские (Full)

General
Unique ID : 168883761637621788173065817706759444094 (0x7F0DD451524381C9EF2B08A77F67D67E)
Complete name : D:Video111Greta.2019.WEB-DL.720p.seleZen.mkv
Format : Matroska
Format version : Version 4
File size : 3.56 GiB
Duration : 1 h 38 min
Overall bit rate : 5 188 kb/s
Movie name : Greta 2019 from селезень
Encoded date : UTC 2019-05-13 20:18:29
Writing application : mkvmerge v33.1.0 ('Primrose') 64-bit
Writing library : libebml v1.3.7 + libmatroska v1.5.0

Video
ID : 1
Format : AVC
Format/Info : Advanced Video Codec
Format profile : Main@L3.1
Format settings : 2 Ref Frames
Format settings, CABAC : No
Format settings, Reference : 2 frames
Codec ID : V_MPEG4/ISO/AVC
Duration : 1 h 38 min
Bit rate : 4 033 kb/s
Width : 1 280 pixels
Height : 536 pixels
Display aspect ratio : 2.40:1
Frame rate mode : Constant
Frame rate : 24.000 FPS
Color space : YUV
Chroma subsampling : 4:2:0
Bit depth : 8 bits
Scan type : Progressive
Bits/(Pixel*Frame) : 0.245
Stream size : 2.77 GiB (78%)
Language : English
Default : Yes
Forced : No
Color range : Limited
Color primaries : BT.709
Transfer characteristics : BT.709
Matrix coefficients : BT.709

Audio #1
ID : 2
Format : AC-3
Format/Info : Audio Coding 3
Commercial name : Dolby Digital
Codec ID : A_AC3
Duration : 1 h 38 min
Bit rate mode : Constant
Bit rate : 384 kb/s
Channel(s) : 6 channels
Channel layout : L R C LFE Ls Rs
Sampling rate : 48.0 kHz
Frame rate : 31.250 FPS (1536 SPF)
Bit depth : 16 bits
Compression mode : Lossy
Stream size : 270 MiB (7%)
Title : iTunes
Language : Russian
Service kind : Complete Main
Default : Yes
Forced : Yes

Audio #2
ID : 3
Format : AC-3
Format/Info : Audio Coding 3
Commercial name : Dolby Digital
Codec ID : A_AC3
Duration : 1 h 38 min
Bit rate mode : Constant
Bit rate : 384 kb/s
Channel(s) : 6 channels
Channel layout : L R C LFE Ls Rs
Sampling rate : 48.0 kHz
Frame rate : 31.250 FPS (1536 SPF)
Bit depth : 16 bits
Compression mode : Lossy
Stream size : 270 MiB (7%)
Title : iTunes
Language : Ukrainian
Service kind : Complete Main
Default : No
Forced : No

Audio #3
ID : 4
Format : AC-3
Format/Info : Audio Coding 3
Commercial name : Dolby Digital
Codec ID : A_AC3
Duration : 1 h 38 min
Bit rate mode : Constant
Bit rate : 384 kb/s
Channel(s) : 2 channels
Channel layout : L R
Sampling rate : 48.0 kHz
Frame rate : 31.250 FPS (1536 SPF)
Bit depth : 16 bits
Compression mode : Lossy
Stream size : 270 MiB (7%)
Title : Original
Language : English
Service kind : Complete Main
Default : No
Forced : No

Text
ID : 5
Format : UTF-8
Codec ID : S_TEXT/UTF8
Codec ID/Info : UTF-8 Plain Text
Duration : 1 h 31 min
Bit rate : 63 b/s
Count of elements : 802
Stream size : 43.1 KiB (0%)
Title : Full
Language : Russian
Default : No
Forced : No

Menu
00:00:00.000 : en:Chapter 1
00:05:14.083 : en:Chapter 2
00:10:17.333 : en:Chapter 3
00:16:57.874 : en:Chapter 4
00:23:03.165 : en:Chapter 5
00:33:27.998 : en:Chapter 6
00:43:00.331 : en:Chapter 7
00:50:17.664 : en:Chapter 8
00:55:44.289 : en:Chapter 9
01:07:20.122 : en:Chapter 10
01:12:32.122 : en:Chapter 11
01:16:35.788 : en:Chapter 12
01:24:15.871 : en:Chapter 13
Источник http://BlaTor.org

Трекер:  [ 13-Май-2019 23:40 ]

  

Скачать .torrent

Размер .torrent файла 5 KB


Размер: 3.56 GB
Хэш (hash) релиза: 8440b93a31ca594542c74883bb9a7dd52fd1272a
Подписка на обновления:

Торренты, похожие на В объятиях лжи Greta скачать торрент

Форум Название Автор Размер S L Добавлен
Зарубежные фильмы 2016-2018 (Новинки зарубежного кино) ·%· В объятиях лжи / Greta (2018) WEB-DLRip-AVC от ExKinoRay | iTunes Galfimbul 782571718746 MB 0 0 1557896429

08:00

15-Май-19

Зарубежные фильмы 2016-2018 (Новинки зарубежного кино) ·%· В объятиях лжи / Greta (2018) WEB-DL 1080p | iTunes Galfimbul 47697867844.44 GB 2 0 1557856870

21:01

14-Май-19

Зарубежные фильмы 2016-2018 (Новинки зарубежного кино) ·%· В объятиях лжи / Greta (2018) WEB-DL 1080p от селезень | iTunes Galfimbul 39130342713.64 GB 2 0 1557778812

23:20

13-Май-19

Еще никто не оставлял запись к записи скачать торрент В объятиях лжи Greta . Будь первым!

!Обратная связь