Скачать через торрент Пункт назначения: Дьюсбери Destination: Dewsbury Фильм бесплатно в хорошем качестве torrent

Скачивайте на UnionPeer.org фильмы через торрент без регистрации. Новинки кино в хорошем качестве через торрент. На UnionPeer.org можно скачать через торрент фильмы 2014 и 2015 годов. Самые новые фильмы.

Скачать торрент Пункт назначения: Дьюсбери Destination: Dewsbury бесплатно через .torrent фильм мультфильм сериал

Статистика раздачи
Размер:  3.11 GB   |    Зарегистрирован:  3 месяца 11 дней   |    .torrent скачан:  117 раз   |   
Раздают:  1  
   
загрузка...
 
Автор Сообщение

Galfimbul

avatar Galfimbul


Название: Пункт назначения: Дьюсбери
Оригинальное название: Destination: Dewsbury
Год выхода: 2018
Производство: Великобритания / Circus Pictures, Wilde International
Жанр: Комедия
Режиссер: Джек Спринг
Актеры: Анна Доусон, Ричард Мэйсон, Филип Майер, Велтон Лишке, Морис Бирн, Дэвид Дж. Кеог, Шарон Спинк, Шарон Хейвуд, Мэтт Шихан, Дэвид МакКлелланд

Описание:
Комедия о четырех друзьях, которые проехали всю Великобританию, чтобы встретиться с умирающим школьным другом в последний раз. Смешная, грубая, оскорбительная британская комедия в чистом виде.



Дата мировой премьеры: 29 апреля 2018
Продолжительность: 01:26:58
Перевод: Многоголосый закадровый, профессиональный (HDRezka Studio)
Субтитры: Английские

Файл
Качество видео: WEB-DL 1080p
Видео: AVC/H.264, 1920x816, ~4547 Kbps
Аудио #1: AC3, 2 ch, 192 Kbps - Русский
Аудио #2: AC3, 6 ch, 384 Kbps - Английский
Общее
Уникальный идентификатор : 324889010752776643190003245407083543009 (0xF46B58F1E694FA86E9743D5CA875B9E1)
Полное имя : C:XXПункт назначенияDestination Dewsbury 2018 WEB-DL 1080p-LQ.mkv
Формат : Matroska
Версия формата : Version 4
Размер файла : 3,11 Гбайт
Продолжительность : 1 ч. 26 м.
Общий поток : 5125 Кбит/сек
Дата кодирования : UTC 2019-05-14 03:13:42
Программа кодирования : mkvmerge v20.0.0 ('I Am The Sun') 64-bit
Библиотека кодирования : libebml v1.3.5 + libmatroska v1.4.8

Видео
Идентификатор : 1
Формат : AVC
Формат/Информация : Advanced Video Codec
Профиль формата : High@L4
Настройки формата : CABAC / 5 Ref Frames
Параметр CABAC формата : Да
Параметр RefFrames формата : 5 кадров
Идентификатор кодека : V_MPEG4/ISO/AVC
Продолжительность : 1 ч. 26 м.
Битрейт : 4547 Кбит/сек
Ширина : 1920 пикселей
Высота : 816 пикселей
Соотношение сторон : 2,35:1
Режим частоты кадров : Постоянный
Частота кадров : 23,976 (24000/1001) кадра/сек
Цветовое пространство : YUV
Субдискретизация насыщенности : 4:2:0
Битовая глубина : 8 бит
Тип развёртки : Прогрессивная
Бит/(Пиксели*Кадры) : 0.121
Размер потока : 2,76 Гбайт (89%)
Язык : English
Default : Да
Forced : Нет
Цветовой диапазон : Limited
Основные цвета : BT.709
Характеристики трансфера : BT.709
Коэффициенты матрицы : BT.709

Аудио #1
Идентификатор : 2
Формат : AC-3
Формат/Информация : Audio Coding 3
Коммерческое название : Dolby Digital
Идентификатор кодека : A_AC3
Продолжительность : 1 ч. 26 м.
Вид битрейта : Постоянный
Битрейт : 192 Кбит/сек
Каналы : 2 канала
Channel layout : L R
Частота : 48,0 КГц
Частота кадров : 31,250 кадров/сек (1536 SPF)
Битовая глубина : 16 бит
Метод сжатия : С потерями
Размер потока : 119 Мбайт (4%)
Заголовок : MVO HDRezka Studio
Язык : Russian
ServiceKind : Complete Main
Default : Да
Forced : Нет

Аудио #2
Идентификатор : 3
Формат : AC-3
Формат/Информация : Audio Coding 3
Коммерческое название : Dolby Digital
Идентификатор кодека : A_AC3
Продолжительность : 1 ч. 26 м.
Вид битрейта : Постоянный
Битрейт : 384 Кбит/сек
Каналы : 6 каналов
Channel layout : L R C LFE Ls Rs
Частота : 48,0 КГц
Частота кадров : 31,250 кадров/сек (1536 SPF)
Битовая глубина : 16 бит
Метод сжатия : С потерями
Размер потока : 239 Мбайт (7%)
Язык : English
ServiceKind : Complete Main
Default : Нет
Forced : Нет

Текст
Идентификатор : 4
Формат : UTF-8
Идентификатор кодека : S_TEXT/UTF8
Идентификатор кодека/Информация : UTF-8 Plain Text
Продолжительность : 1 ч. 26 м.
Битрейт : 83 бит/сек
ElementCount : 1892
Размер потока : 53,0 Кбайт (0%)
Язык : English
Default : Нет
Forced : Нет

Меню
00:00:00.000 : en:1
00:15:00.000 : en:2
00:30:00.000 : en:3
00:45:00.000 : en:4
01:00:00.000 : en:5
01:15:00.000 : en:6
Источник http://BlaTor.org

Трекер:  [ 14-Май-2019 10:30 ]

  

Скачать .torrent

Размер .torrent файла 16 KB


Размер: 3.11 GB
Хэш (hash) релиза: efac89d2be63bfe294b24e0dafd81ad55d20f6f7
Подписка на обновления:

Торренты, похожие на Пункт назначения: Дьюсбери Destination: Dewsbury скачать торрент

Форум Название Автор Размер S L Добавлен
Зарубежные фильмы 2016-2018 (Новинки зарубежного кино) ·%· Пункт назначения: Дьюсбери / Destination: Dewsbury (2018) WEB-DLRip от Portablius | HDRezka Studio Galfimbul 781549568745 MB 0 0 1557919840

14:30

15-Май-19

Еще никто не оставлял запись к записи скачать торрент Пункт назначения: Дьюсбери Destination: Dewsbury . Будь первым!

!Обратная связь