Скачать через торрент В объятиях лжи Greta Фильм бесплатно в хорошем качестве torrent

Скачивайте на UnionPeer.org фильмы через торрент без регистрации. Новинки кино в хорошем качестве через торрент. На UnionPeer.org можно скачать через торрент фильмы 2014 и 2015 годов. Самые новые фильмы.

Скачать торрент В объятиях лжи Greta бесплатно через .torrent фильм мультфильм сериал

Статистика раздачи
Размер:  4.44 GB   |    Зарегистрирован:  11 дней   |    .torrent скачан:  122 раза   |   
Раздают:  5  
   
загрузка...
 
Автор Сообщение

Galfimbul

avatar Galfimbul


В объятиях лжи /Greta

Год выхода: 2018
Жанр: Ужасы, триллер, драма, детектив
Режиссер: Нил Джордан
В ролях: Изабель Юппер, Хлоя Грейс Морец, Майка Монро, Джейн Перри, Джефф Хиллер, Паркер Сойерс, Брэндон Ли Сирс, Артур Ли, Роза Эскода, Джессика Предди

О фильме:
Одинокая девушка, недавно переехавшая на Манхэттен, случайно встречается с загадочной вдовой. Между ними завязывается дружба, и необычная знакомая окружает юную подругу вниманием и заботой. Но вскоре одна из них поймет, что оказалась в объятиях лжи…



Страна: Ирландия, США
Студия: Sidney Kimmel Entertainment, Lawrence Bender Productions, Little Wave Productions
Продолжительность: 01:38:36
Перевод: Дублированный | iTunes

Файл
Кодек: AVC
Качество: WEB-DL 1080p | Greta.2018.1080p.AMZN.WEB-DL.DDP5.1.H.264-NTG
Видео: MPEG-4 AVC, 5425 Kбит/с, 1920x800, 23.976 кадр/с
Аудио #1: Русский (АС3, 6ch, 384 Кбит/с, 48.0 KHz) Профессиональный (дублированный) iTunes
Аудио #2: Английский (E-АС3, 6ch, 640 Кбит/с, 48.0 KHz)
Субтитры: Русские , английские
Трейлер
Источник: Greta.2018.1080p.AMZN.WEB-DL.DDP5.1.H.264-NTG
General
Unique ID : 236087781225354733169859087758815810675 (0xB19CDA4CF1E21D64A819C0D7923E5473)
Complete name : Greta.2018.AMZN.WEB-DL.1080p.mkv
Format : Matroska
Format version : Version 4 / Version 2
File size : 4.44 GiB
Duration : 1 h 38 min
Overall bit rate : 6 450 kb/s
Encoded date : UTC 2019-05-14 13:55:33
Writing application : mkvmerge v7.1.0 ('Good Love') 64bit built on Jul 27 2014 13:06:55
Writing library : libebml v1.3.0 + libmatroska v1.4.1

Video
ID : 1
Format : AVC
Format/Info : Advanced Video Codec
Format profile : High@L4
Format settings, CABAC : Yes
Format settings, RefFrames : 4 frames
Codec ID : V_MPEG4/ISO/AVC
Duration : 1 h 38 min
Bit rate mode : Constant
Bit rate : 5 425 kb/s
Nominal bit rate : 10 000 kb/s
Width : 1 920 pixels
Height : 800 pixels
Display aspect ratio : 2.40:1
Frame rate mode : Constant
Frame rate : 23.976 (24000/1001) FPS
Color space : YUV
Chroma subsampling : 4:2:0
Bit depth : 8 bits
Scan type : Progressive
Bits/(Pixel*Frame) : 0.147
Stream size : 3.74 GiB (84%)
Language : English
Default : Yes
Forced : No
Color range : Limited
Color primaries : BT.709
Transfer characteristics : BT.709
Matrix coefficients : BT.709

Audio #1
ID : 2
Format : AC-3
Format/Info : Audio Coding 3
Format settings, Endianness : Big
Codec ID : A_AC3
Duration : 1 h 38 min
Bit rate mode : Constant
Bit rate : 384 kb/s
Channel(s) : 6 channels
Channel positions : Front: L C R, Side: L R, LFE
Sampling rate : 48.0 kHz
Frame rate : 31.250 FPS (1536 SPF)
Bit depth : 16 bits
Compression mode : Lossy
Stream size : 270 MiB (6%)
Title : iTunes
Language : Russian
Service kind : Complete Main
Default : Yes
Forced : No

Audio #2
ID : 3
Format : E-AC-3
Format/Info : Enhanced Audio Coding 3
Format settings, Endianness : Big
Codec ID : A_EAC3
Duration : 1 h 38 min
Bit rate mode : Constant
Bit rate : 640 kb/s
Channel(s) : 6 channels
Channel positions : Front: L C R, Side: L R, LFE
Sampling rate : 48.0 kHz
Frame rate : 187.500 FPS (256 SPF)
Compression mode : Lossy
Stream size : 451 MiB (10%)
Language : English
Service kind : Complete Main
Default : No
Forced : No

Text #1
ID : 4
Format : UTF-8
Codec ID : S_TEXT/UTF8
Codec ID/Info : UTF-8 Plain Text
Duration : 1 h 32 min
Bit rate : 63 b/s
Count of elements : 802
Stream size : 43.1 KiB (0%)
Language : Russian
Default : No
Forced : No

Text #2
ID : 5
Format : UTF-8
Codec ID : S_TEXT/UTF8
Codec ID/Info : UTF-8 Plain Text
Duration : 1 h 32 min
Bit rate : 44 b/s
Count of elements : 1176
Stream size : 29.9 KiB (0%)
Language : English
Default : No
Forced : No

Text #3
ID : 6
Format : UTF-8
Codec ID : S_TEXT/UTF8
Codec ID/Info : UTF-8 Plain Text
Duration : 1 h 38 min
Bit rate : 50 b/s
Count of elements : 1477
Stream size : 36.5 KiB (0%)
Title : SDH
Language : English
Default : No
Forced : No

Menu
00:00:00.000 : en:00:00:00.000
00:07:06.051 : en:00:07:06.051
00:15:40.648 : en:00:15:40.648
00:23:45.507 : en:00:23:45.507
00:32:41.084 : en:00:32:41.084
00:37:57.192 : en:00:37:57.192
00:45:34.607 : en:00:45:34.607
00:52:15.174 : en:00:52:15.174
01:02:05.472 : en:01:02:05.472
01:10:16.254 : en:01:10:16.254
01:16:22.036 : en:01:16:22.036
01:26:28.141 : en:01:26:28.141
Источник http://BlaTor.org

Трекер:  [ 14-Май-2019 21:00 ]

  

Скачать .torrent

Размер .torrent файла 11 KB


Размер: 4.44 GB
Хэш (hash) релиза: 43c2ad8840945a667f72ce36c274b18cd549c50f
Подписка на обновления:

Еще никто не оставлял запись к записи скачать торрент В объятиях лжи Greta . Будь первым!

!Обратная связь