Скачать через торрент Пункт назначения: Дьюсбери Destination: Dewsbury Фильм бесплатно в хорошем качестве torrent

Скачивайте на UnionPeer.org фильмы через торрент без регистрации. Новинки кино в хорошем качестве через торрент. На UnionPeer.org можно скачать через торрент фильмы 2014 и 2015 годов. Самые новые фильмы.

Скачать торрент Пункт назначения: Дьюсбери Destination: Dewsbury бесплатно через .torrent фильм мультфильм сериал

Статистика раздачи
Размер:  745 MB   |    Зарегистрирован:  3 месяца 10 дней   |    .torrent скачан:  83 раза   |   
Раздают:  1  
   
загрузка...
 
Автор Сообщение

Galfimbul

avatar Galfimbul


Пункт назначения: Дьюсбери /Destination: Dewsbury

Год выхода: 2018
Жанр: Комедия
Режиссер: Джек Спринг
В ролях: Анна Доусон, Ричард Мэйсон, Филип Майер, Велтон Лишке, Морис Бирн, Дэвид Дж. Кеог, Шарон Спинк, Шарон Хейвуд, Мэтт Шихан, Дэвид МакКлелланд

О фильме: Комедия о четырех друзьях, которые проехали всю Великобританию, чтобы встретиться с умирающим школьным другом в последний раз. Смешная, грубая, оскорбительная британская комедия в чистом виде.



Страна: Великобритания
Студия: Circus Pictures, Wilde International
Продолжительность: 01:26:58
Перевод: Профессиональный (многоголосый, закадровый) | HDRezka Studio
Субтитры: нет

Файл
Кодек: XviD
Качество: WEB-DLRip
Видео: 720x304 (2.37:1), 23.976 fps, XviD build 73 ~1060 kbps avg, 0.20 bit/pixel
Звук: 48 kHz, MPEG Layer 3, 2 ch, ~128.00 kbps avg
General
Complete name : Destination.Dewsbury.2018.WEB-DLRip.Portablius.avi
Format : AVI
Format/Info : Audio Video Interleave
File size : 745 MiB
Duration : 1 h 26 min
Overall bit rate : 1 198 kb/s
Writing application : VirtualDubMod 1.5.10.3 | www.virtualdub-fr.org || (build 2550/release)
Writing library : VirtualDubMod build 2550/release

Video
ID : 0
Format : MPEG-4 Visual
Format profile : Advanced Simple@L5
Format settings : BVOP1 / Custom Matrix
Format settings, BVOP : 1
Format settings, QPel : No
Format settings, GMC : No warppoints
Format settings, Matrix : Custom
Codec ID : XVID
Codec ID/Hint : XviD
Duration : 1 h 26 min
Bit rate : 1 061 kb/s
Width : 720 pixels
Height : 304 pixels
Display aspect ratio : 2.35:1
Frame rate : 23.976 (24000/1001) FPS
Color space : YUV
Chroma subsampling : 4:2:0
Bit depth : 8 bits
Scan type : Progressive
Compression mode : Lossy
Bits/(Pixel*Frame) : 0.202
Stream size : 660 MiB (89%)
Writing library : XviD 73

Audio
ID : 1
Format : MPEG Audio
Format version : Version 1
Format profile : Layer 3
Codec ID : 55
Codec ID/Hint : MP3
Duration : 1 h 26 min
Bit rate mode : Constant
Bit rate : 128 kb/s
Channel(s) : 2 channels
Sampling rate : 48.0 kHz
Frame rate : 41.667 FPS (1152 SPF)
Compression mode : Lossy
Stream size : 79.6 MiB (11%)
Alignment : Aligned on interleaves
Interleave, duration : 42 ms (1.00 video frame)
Interleave, preload duratio : 504 ms
Writing library : LAME3.99r
Encoding settings : -m s -V 4 -q 2 -lowpass 17 -b 128
Источник http://BlaTor.org

Трекер:  [ 15-Май-2019 14:30 ]

  

Скачать .torrent

Размер .torrent файла 15 KB


Размер: 745 MB
Хэш (hash) релиза: 909c3f1b383994090b6396d8d689baf1da59be24
Подписка на обновления:

Торренты, похожие на Пункт назначения: Дьюсбери Destination: Dewsbury скачать торрент

Форум Название Автор Размер S L Добавлен
Зарубежные фильмы 2016-2018 (Новинки зарубежного кино) ·%· Пункт назначения: Дьюсбери / Destination: Dewsbury (2018) WEB-DL 1080p | HDRezka Studio Galfimbul 33434704873.11 GB 0 0 1557819054

10:30

14-Май-19

Еще никто не оставлял запись к записи скачать торрент Пункт назначения: Дьюсбери Destination: Dewsbury . Будь первым!

!Обратная связь