Скачать через торрент Акульи плотины Dam Sharks Фильм бесплатно в хорошем качестве torrent

Скачивайте на UnionPeer.org фильмы через торрент без регистрации. Новинки кино в хорошем качестве через торрент. На UnionPeer.org можно скачать через торрент фильмы 2014 и 2015 годов. Самые новые фильмы.

Скачать торрент Акульи плотины Dam Sharks бесплатно через .torrent фильм мультфильм сериал

Статистика раздачи
Размер:  1.36 GB   |    Зарегистрирован:  4 года 9 месяцев   |    .torrent скачан:  48 раз   |   
Раздают:  1  
 

Скачать Акульи плотины / Dam Sharks (2016) WEB-DLRip от Portablius | P через torrent

 
 
Автор Сообщение

Galfimbul

avatar Galfimbul


Акульи плотины /Dam Sharks

Год выхода: 2016
Жанр: Ужасы, фантастика, боевик
Режиссеры: Джеймс Конделик, Джон Конделик
В ролях: Джанелл Бодри, Пейдж Лорен Биллиот, Эштон Бингхэм, Джессика Блэкмор, Кэбби Бордерс, Джейсон Брильянтес, Кори Крэйг, Роберт Крэйгхед, Мишель ДеМон, Энди Эрл

О фильме: Во время корпоративной вылазки на природу компания молодых офисных работников узнаёт, что местная река наводнена прожорливыми бычьими акулами, которые используют части человеческих тел, чтобы строить плотины.



Страна: США
Продолжительность: 01:23:28
Перевод: Профессиональный (многоголосый, закадровый) | ТВ3
Субтитры: нет

Файл
Кодек: XviD
Качество: WEB-DLRip
Видео: 688x384 (1.79:1), 23.976 fps, XviD build 73 ~2131 kbps avg, 0.34 bit/pixel
Звук: 48 kHz, AC3 Dolby Digital, 2/0 (L,R) ch, ~192 kbps
General
Complete name : Dam.Sharks.2016.WEB-DLRip.Portablius.avi
Format : AVI
Format/Info : Audio Video Interleave
File size : 1.36 GiB
Duration : 1 h 23 min
Overall bit rate : 2 333 kb/s
Writing application : VirtualDubMod 1.5.10.3 | www.virtualdub-fr.org || (build 2550/release)
Writing library : VirtualDubMod build 2550/release

Video
ID : 0
Format : MPEG-4 Visual
Format profile : Advanced Simple@L5
Format settings : BVOP1 / Custom Matrix
Format settings, BVOP : 1
Format settings, QPel : No
Format settings, GMC : No warppoints
Format settings, Matrix : Custom
Codec ID : XVID
Codec ID/Hint : XviD
Duration : 1 h 23 min
Bit rate : 2 131 kb/s
Width : 688 pixels
Height : 384 pixels
Display aspect ratio : 16:9
Frame rate : 23.976 (24000/1001) FPS
Color space : YUV
Chroma subsampling : 4:2:0
Bit depth : 8 bits
Scan type : Progressive
Compression mode : Lossy
Bits/(Pixel*Frame) : 0.336
Stream size : 1.24 GiB (91%)
Writing library : XviD 73

Audio
ID : 1
Format : AC-3
Format/Info : Audio Coding 3
Commercial name : Dolby Digital
Codec ID : 2000
Duration : 1 h 23 min
Bit rate mode : Constant
Bit rate : 192 kb/s
Channel(s) : 2 channels
Channel layout : L R
Sampling rate : 48.0 kHz
Frame rate : 31.250 FPS (1536 SPF)
Bit depth : 16 bits
Compression mode : Lossy
Stream size : 115 MiB (8%)
Alignment : Split across interleaves
Interleave, duration : 42 ms (1.00 video frame)
Interleave, preload duratio : 500 ms
Service kind : Complete Main
Источник http://BlaTor.org

Внимание! AdBlock блокирует показ скриншотов, все вопросы к разработчикам )))
Трекер:  [ 18-Май-2019 08:00 ]

  

Скачать .torrent

Размер .torrent файла 14 KB


Размер: 1.36 GB
Хэш (hash) релиза: 6ae2ac9e7a374210a607c621e5be842f08ed85b5
Подписка на обновления:

Торренты, похожие на Акульи плотины Dam Sharks скачать торрент

Форум Название Автор Размер S L Добавлен
Зарубежные фильмы 2016-2019 (Новинки зарубежного кино) ·· Акульи плотины / Dam Sharks (Джеймс Конделик, Джон Конделик) [2016, ужасы, фантастика, боевик, HDTVRip] Galfimbul 15613613061.45 GB 0 0 1484732628

12:43

18-Янв-17

Еще никто не оставлял запись к записи скачать торрент Акульи плотины Dam Sharks . Будь первым!

!Обратная связь