Скачать через торрент Пушистый шпион Marnies Welt Фильм бесплатно в хорошем качестве torrent

Скачивайте на UnionPeer.org фильмы через торрент без регистрации. Новинки кино в хорошем качестве через торрент. На UnionPeer.org можно скачать через торрент фильмы 2014 и 2015 годов. Самые новые фильмы.

Скачать торрент Пушистый шпион Marnies Welt бесплатно через .torrent фильм мультфильм сериал

Статистика раздачи
Размер:  749 MB   |    Зарегистрирован:  4 месяца 1 день   |    .torrent скачан:  178 раз   |   
Раздают:  4  
   
загрузка...
 
Автор Сообщение

Galfimbul

avatar Galfimbul


Пушистый шпион /Marnies Welt

Год выхода: 2018
Жанр: Мультфильм, приключения, семейный
Режиссеры: Вольфганг Лауэнштайн, Кристоф Лауэнштайн
В ролях: Эрик Борнер, Александра Нелдель, Аксель Праль

О фильме: Избалованная рыжая кошечка Марни живёт в доме со своей хозяйкой в тепле и уюте и в ус не дует. Но ее жизнь радикально меняется, когда она становится жертвой грабителей-преступников, которые отправляют ее в коробке в другой город. В дороге коробка теряется и Марни оказывается где-то в глухой деревне, один на один с реальной жизнью. Она встречает Пса, Петуха и Осла и тут начинаются приключения… Марни и ее новым друзьям предстоит найти того, кто стоит за загадочными ограблениями в городе и обезвредить эту банду...



Страна: Германия, Бельгия
Студия: Grid Animation, Philm CGI, Scope Pictures, Seven Pictures, UFA Fiction
Продолжительность: 01:32:03
Перевод: Профессиональный (полное дублирование) | iTunes
Субтитры: нет

Файл
Кодек: XviD
Качество: WEB-DLRip
Видео: 704x384 (1.83:1), 24.000 fps, XviD build 73 ~999 kbps avg, 0.15 bit/pixel
Звук: 48 kHz, MPEG Layer 3, 2 ch, ~128.00 kbps avg
General
Complete name : Marnies.Welt.2018.WEB-DLRip.Portablius.avi
Format : AVI
Format/Info : Audio Video Interleave
File size : 749 MiB
Duration : 1 h 32 min
Overall bit rate : 1 137 kb/s
Writing application : VirtualDubMod 1.5.10.3 | www.virtualdub-fr.org || (build 2550/release)
Writing library : VirtualDubMod build 2550/release

Video
ID : 0
Format : MPEG-4 Visual
Format profile : Advanced Simple@L5
Format settings : BVOP1 / Custom Matrix
Format settings, BVOP : 1
Format settings, QPel : No
Format settings, GMC : No warppoints
Format settings, Matrix : Custom
Codec ID : XVID
Codec ID/Hint : XviD
Duration : 1 h 32 min
Bit rate : 1 000 kb/s
Width : 704 pixels
Height : 384 pixels
Display aspect ratio : 1.85:1
Original display aspect rat : 1.85:1
Frame rate : 24.000 FPS
Color space : YUV
Chroma subsampling : 4:2:0
Bit depth : 8 bits
Scan type : Progressive
Compression mode : Lossy
Bits/(Pixel*Frame) : 0.154
Stream size : 658 MiB (88%)
Writing library : XviD 73

Audio
ID : 1
Format : MPEG Audio
Format version : Version 1
Format profile : Layer 3
Codec ID : 55
Codec ID/Hint : MP3
Duration : 1 h 32 min
Bit rate mode : Constant
Bit rate : 128 kb/s
Channel(s) : 2 channels
Sampling rate : 48.0 kHz
Frame rate : 41.667 FPS (1152 SPF)
Compression mode : Lossy
Stream size : 84.3 MiB (11%)
Alignment : Aligned on interleaves
Interleave, duration : 42 ms (1.00 video frame)
Interleave, preload duratio : 504 ms
Writing library : LAME3.99r
Encoding settings : -m s -V 4 -q 2 -lowpass 17 -b 128
Источник http://BlaTor.org

Трекер:  [ 19-Май-2019 16:10 ]

  

Скачать .torrent

Размер .torrent файла 15 KB


Размер: 749 MB
Хэш (hash) релиза: 1feb09fcf0dfef9c50bf98bc6f17ec0415d53222
Подписка на обновления:

Торренты, похожие на Пушистый шпион Marnies Welt скачать торрент

Форум Название Автор Размер S L Добавлен
Мультфильмы 2016-2018 (Новинки мультфильмов) ·%· Пушистый шпион / Marnies Welt (2018) WEB-DLRip 720p от SuperMin | D | iTunes Galfimbul 16459919951.53 GB 0 0 1565017217

18:00

5-Авг-19

Еще никто не оставлял запись к записи скачать торрент Пушистый шпион Marnies Welt . Будь первым!

!Обратная связь