Скачать через торрент Домовой Фильм бесплатно в хорошем качестве torrent

Скачивайте на UnionPeer.org фильмы через торрент без регистрации. Новинки кино в хорошем качестве через торрент. На UnionPeer.org можно скачать через торрент фильмы 2014 и 2015 годов. Самые новые фильмы.

Скачать торрент Домовой бесплатно через .torrent фильм мультфильм сериал

Статистика раздачи
Размер:  3.54 GB   |    Зарегистрирован:  4 месяца   |    .torrent скачан:  447 раз   |   
Раздают:  3  
   
загрузка...
 
Автор Сообщение

Galfimbul

avatar Galfimbul


Домовой



[b]Год выхода:
2019
Жанр: семейный, фэнтези, комедия
Режиссер: Евгений Бедарев
В ролях: Сергей Чирков, Екатерина Гусева, Александра Политик, Ольга Остроумова-Гутшмидт, Павел Деревянко, Юлия Сулес, Татьяна Орлова, Сергей Рубеко, Дмитрий Белоцерковский, Дмитрий Бедарев

О фильме:
В обычном и суетливом городе Москве есть необычный Дом, обросший сотнями тайн и загадок. В этом доме есть странная квартира, в которой еще надолго не задержался ни один жилец…
И лишь тогда, когда в эту «милую» квартиру заезжает самостоятельная мама с очаровательной 8-летней дочерью Алиной, новые жильцы узнают, что жилплощадь их — непростая, а живет в ней самый настоящий Домовой. Только вот хранитель очага уже давно обиделся на весь род человеческий и сделает все вообразимые гадости, только бы остаться одному в злополучной квартире. Но всё меняется, когда Домовому бросает вызов злая колдунья…



Страна: Россия
Продолжительность: 01:43:12
Перевод: Не требуется (русский)

Файл
Качество: WEB-DL 1080p | iTunes
Видео: AVC/H.264, 1908x744, ~4523 Кbps, 23.976 fps
Звук: Аудио: AC3, 6 ch, 384 kbps - Русский
Общее
Уникальный идентификатор : 100155125200101861788247369927715637242 (0x4B592CEBA5616FBF439E1F25828AC7FA)
Полное имя : Domovoy.2019.WEB-DL.1080p.mkv
Формат : Matroska
Версия формата : Version 4
Размер файла : 3,54 Гбайт
Продолжительность : 1 ч. 43 м.
Общий поток : 4908 Кбит/сек
Дата кодирования : UTC 2019-05-20 17:10:36
Программа кодирования : mkvmerge v23.0.0 ('The Bride Said No') 64-bit
Библиотека кодирования : libebml v1.3.6 + libmatroska v1.4.9

Видео
Идентификатор : 1
Формат : AVC
Формат/Информация : Advanced Video Codec
Профиль формата : High@L4
Настройки формата : CABAC / 5 Ref Frames
Параметр CABAC формата : Да
Параметр RefFrames формата : 5 кадров
Идентификатор кодека : V_MPEG4/ISO/AVC
Продолжительность : 1 ч. 43 м.
Битрейт : 4523 Кбит/сек
Ширина : 1908 пикселей
Высота : 744 пикселя
Соотношение сторон : 2,565
Режим частоты кадров : Постоянный
Частота кадров : 23,976 кадра/сек
Цветовое пространство : YUV
Субдискретизация насыщенности : 4:2:0
Битовая глубина : 8 бит
Тип развёртки : Прогрессивная
Бит/(Пиксели*Кадры) : 0.133
Размер потока : 3,26 Гбайт (92%)
Язык : Russian
Default : Да
Forced : Нет
Цветовой диапазон : Limited
Основные цвета : BT.709
Характеристики трансфера : BT.709
Коэффициенты матрицы : BT.709

Аудио
Идентификатор : 2
Формат : AC-3
Формат/Информация : Audio Coding 3
Коммерческое название : Dolby Digital
Идентификатор кодека : A_AC3
Продолжительность : 1 ч. 43 м.
Вид битрейта : Постоянный
Битрейт : 384 Кбит/сек
Каналы : 6 каналов
ChannelLayout : L R C LFE Ls Rs
Частота : 48,0 КГц
Частота кадров : 31,250 кадров/сек (1536 SPF)
Битовая глубина : 16 бит
Метод сжатия : С потерями
Задержка видео : -42 мс.
Размер потока : 283 Мбайт (8%)
Язык : Russian
ServiceKind : Complete Main
Default : Да
Forced : Нет

Меню
00:00:00.000 : en:1
00:06:09.000 : en:2
00:16:14.000 : en:3
00:26:05.000 : en:4
00:38:53.000 : en:5
00:47:08.000 : en:6
00:59:20.000 : en:7
01:09:14.000 : en:8
01:19:49.000 : en:9
01:31:03.000 : en:10
01:38:01.000 : en:11
Источник http://BlaTor.org

Трекер:  [ 20-Май-2019 21:30 ]

  

Скачать .torrent

Размер .torrent файла 18 KB


Размер: 3.54 GB
Хэш (hash) релиза: 7146de8d3c84b0b58a009a280b1bd37f8e8386dc
Подписка на обновления:

Торренты, похожие на Домовой скачать торрент

Форум Название Автор Размер S L Добавлен
Российские фильмы 2016-2018 (Новинки русского кино) ·%· Домовой (2019) WEB-DLRip от GeneralFilm | iTunes Galfimbul 15621795841.45 GB 0 0 1558785031

14:50

25-Май-19

Российские фильмы 2016-2018 (Новинки русского кино) ·%· Домовой (2019) WEB-DLRip от GeneralFilm | iTunes Galfimbul 782721024746 MB 0 0 1558779023

13:10

25-Май-19

Российские фильмы 2016-2018 (Новинки русского кино) ·%· Домовой (2019) WEB-DLRip от Scarabey | iTunes Galfimbul 15533240321.45 GB 0 0 1558545066

20:11

22-Май-19

Российские фильмы 2016-2018 (Новинки русского кино) ·%· Домовой (2019) WEB-DLRip-AVC от OlLanDGroup | iTunes Galfimbul 15668616241.46 GB 0 0 1558528217

15:30

22-Май-19

Российские фильмы 2016-2018 (Новинки русского кино) ·%· Домовой (2019) WEB-DLRip | КПК | iTunes Galfimbul 410263513391 MB 0 0 1558525815

14:50

22-Май-19

Российские фильмы 2016-2018 (Новинки русского кино) ·%· Домовой (2019) WEB-DLRip-AVC | iTunes Galfimbul 779897331744 MB 0 0 1558521023

13:30

22-Май-19

Российские фильмы 2016-2018 (Новинки русского кино) ·%· Домовой (2019) WEB-DLRip от Portablius | iTunes Galfimbul 782802944747 MB 0 0 1558419012

09:10

21-Май-19

Российские фильмы 2016-2018 (Новинки русского кино) ·%· Домовой (2019) WEB-DLRip от MegaPeer | iTunes Galfimbul 15681392641.46 GB 2 0 1558385415

23:50

20-Май-19

Российские фильмы 2016-2018 (Новинки русского кино) ·%· Домовой (2019) WEB-DL 720p | iTunes Galfimbul 34183799513.18 GB 0 0 1558374616

20:50

20-Май-19

Российские сериалы ·· Домовой / Серии: 1-2 из 2 (Игорь Шевченко) [2017, комедия, WEBRip] Galfimbul 11545292801.08 GB 0 0 1506943675

14:27

2-Окт-17

Российские сериалы ·· Домовой / Серии: 1-2 из 2 (Игорь Шевченко) [2017, комедия, WEBRip 1080p] Galfimbul 28790934792.68 GB 0 0 1506943667

14:27

2-Окт-17

Зарубежные фильмы до 2016 ·· Запрещено для детей. Трилогия (Домовой + Ликкефантен + Оггиногген / Forbudt for børn (Buldermanden + Lykkefanten + Ogginoggen) (Йеспер В. Нильсен / Jesper W. Nielsen) [1996, Дания, короткий метр, DVD9 (Custom)] VO + Sub Rus + Original Dan Galfimbul 80149872647.46 GB 0 0 1497029785

20:36

9-Июн-17

Мультфильмы до 2016 ·· Домовой / Kingikratt (Аарне Ахи / Aarne Ahi) [1991, мультфильм, VHSRip] Galfimbul 10039705696 MB 0 0 1419661318

09:21

27-Дек-14

Мультфильмы до 2016 ·· Домовой и хозяйка (Майя Бузинова, Иосиф Доукша) [1988 г., мультфильм, DVB] Galfimbul 238657536228 MB 0 0 1377570773

05:32

27-Авг-13

Российские фильмы до 2016 ·· Домовой (Карен Оганесян) [2008 г., Триллер, DVDRip] Bot 15656427521.46 GB 0 0 1287688855

22:20

21-Окт-10

Российские фильмы до 2016 ·· Домовой (Карен Оганесян) [2008 г., Триллер, DVDRip] MaTaDoRe 780625920744 MB 0 0 1287688668

22:17

21-Окт-10

Еще никто не оставлял запись к записи скачать торрент Домовой . Будь первым!

!Обратная связь