Скачать через торрент Мы Us Фильм бесплатно в хорошем качестве torrent

Скачивайте на UnionPeer.org фильмы через торрент без регистрации. Новинки кино в хорошем качестве через торрент. На UnionPeer.org можно скачать через торрент фильмы 2014 и 2015 годов. Самые новые фильмы.

Скачать торрент Мы Us бесплатно через .torrent фильм мультфильм сериал

Статистика раздачи
Размер:  4.34 GB   |    Зарегистрирован:  3 месяца 28 дней   |    .torrent скачан:  307 раз   |   
Раздают:  1  
   
загрузка...
 
Автор Сообщение

Galfimbul

avatar Galfimbul


Мы /Us

Год выхода: 2019
Жанр: Ужасы, триллер
Режиссер: Джордан Пил
В ролях: Лупита Нионго, Уинстон Дьюк, Элизабет Мосс, Тим Хайдекер, Шахади Райт Джозеф, Эван Алекс, Яхья Абдул-Матин II, Анна Диоп, Кали Шелдон, Ноэль Шелдон, Мэдисон Карри, Эшли МакКой, Напьера Гровс, Лон Гоуэн, Дастин Ибарра

О фильме:
Картина расскажет о семейной паре, которая вместе с детьми и друзьями приезжает в пляжный домик в надежде расслабиться и отдохнуть. С приближением ночи становится понятно, что покой им не светит, когда рядом появляются нежеланные соседи.

Страна: США, Япония, Китай
Студия: Monkeypaw Productions
Продолжительность: 01:56:28

Файл
Качество: WEB-DL 1080p | iTunes
Видео: AVC/H.264, 1916x800, 4568 Кbps, 23.976 fps
Звук:
Аудио 1: AC3, 6 ch, 384 Kbps - русский
Аудио 2: AC3, 2 ch, 384 Kbps - английский
Субтитры: Русские (форс хардсаб), Английские (полные, SDH)
Общее
Уникальный идентификатор : 199484213007033257948839793891304008441 (0x9613430D99B86BCDB042358FF5A7EAF9)
Полное имя : Us.2019.WEB-DL.1080p.mkv
Формат : Matroska
Версия формата : Version 4
Размер файла : 4,34 Гбайт
Продолжительность : 1 ч. 56 м.
Общий поток : 5339 Кбит/сек
Название фильма : Us.2019.WEB-DL.1080p
Дата кодирования : UTC 2019-05-22 20:36:51
Программа кодирования : mkvmerge v23.0.0 ('The Bride Said No') 64-bit
Библиотека кодирования : libebml v1.3.6 + libmatroska v1.4.9

Видео
Идентификатор : 1
Формат : AVC
Формат/Информация : Advanced Video Codec
Профиль формата : High@L4
Настройки формата : CABAC / 5 Ref Frames
Параметр CABAC формата : Да
Параметр RefFrames формата : 5 кадров
Идентификатор кодека : V_MPEG4/ISO/AVC
Продолжительность : 1 ч. 56 м.
Битрейт : 4568 Кбит/сек
Ширина : 1916 пикселей
Высота : 800 пикселей
Соотношение сторон : 2,40:1
Режим частоты кадров : Постоянный
Частота кадров : 23,976 (23976/1000) кадра/сек
Цветовое пространство : YUV
Субдискретизация насыщенности : 4:2:0
Битовая глубина : 8 бит
Тип развёртки : Прогрессивная
Бит/(Пиксели*Кадры) : 0.124
Размер потока : 3,72 Гбайт (86%)
Язык : English
Default : Да
Forced : Нет
Цветовой диапазон : Limited
Основные цвета : BT.709
Характеристики трансфера : BT.709
Коэффициенты матрицы : BT.709

Аудио #1
Идентификатор : 2
Формат : AC-3
Формат/Информация : Audio Coding 3
Коммерческое название : Dolby Digital
Идентификатор кодека : A_AC3
Продолжительность : 1 ч. 56 м.
Вид битрейта : Постоянный
Битрейт : 384 Кбит/сек
Каналы : 6 каналов
ChannelLayout : L R C LFE Ls Rs
Частота : 48,0 КГц
Частота кадров : 31,250 кадров/сек (1536 SPF)
Битовая глубина : 16 бит
Метод сжатия : С потерями
Размер потока : 320 Мбайт (7%)
Язык : Russian
ServiceKind : Complete Main
Default : Да
Forced : Нет

Аудио #2
Идентификатор : 3
Формат : AC-3
Формат/Информация : Audio Coding 3
Коммерческое название : Dolby Digital
Идентификатор кодека : A_AC3
Продолжительность : 1 ч. 56 м.
Вид битрейта : Постоянный
Битрейт : 384 Кбит/сек
Каналы : 2 канала
ChannelLayout : L R
Частота : 48,0 КГц
Частота кадров : 31,250 кадров/сек (1536 SPF)
Битовая глубина : 16 бит
Метод сжатия : С потерями
Размер потока : 320 Мбайт (7%)
Язык : English
ServiceKind : Complete Main
Default : Нет
Forced : Нет

Текст #1
Идентификатор : 4
Формат : UTF-8
Идентификатор кодека : S_TEXT/UTF8
Идентификатор кодека/Информация : UTF-8 Plain Text
Продолжительность : 1 ч. 49 м.
Битрейт : 35 бит/сек
ElementCount : 1038
Размер потока : 28,6 Кбайт (0%)
Заголовок : Full
Язык : English
Default : Нет
Forced : Нет

Текст #2
Идентификатор : 5
Формат : UTF-8
Идентификатор кодека : S_TEXT/UTF8
Идентификатор кодека/Информация : UTF-8 Plain Text
Продолжительность : 1 ч. 56 м.
Битрейт : 57 бит/сек
ElementCount : 1749
Размер потока : 48,8 Кбайт (0%)
Заголовок : SDH
Язык : English
Default : Нет
Forced : Нет

Меню
00:00:00.000 : en:1
00:06:06.157 : en:2
00:11:26.352 : en:3
00:17:13.115 : en:4
00:23:25.654 : en:5
00:29:32.520 : en:6
00:36:08.791 : en:7
00:41:08.757 : en:8
00:48:09.302 : en:9
00:55:44.256 : en:10
01:03:01.318 : en:11
01:07:50.357 : en:12
01:14:26.211 : en:13
01:20:13.016 : en:14
01:25:26.954 : en:15
01:29:45.045 : en:16
01:35:22.674 : en:17
01:40:55.548 : en:18
01:47:37.908 : en:19
01:52:15.393 : en:20
Источник http://BlaTor.org

Трекер:  [ 23-Май-2019 00:20 ]

  

Скачать .torrent

Размер .torrent файла 22 KB


Размер: 4.34 GB
Хэш (hash) релиза: 300cde33b86ed62bc4c231c0356fd1e61f8cb5e2
Подписка на обновления:

Торренты, похожие на Мы Us скачать торрент

Форум Название Автор Размер S L Добавлен
Зарубежные фильмы 2016-2018 (Новинки зарубежного кино) ·%· Мы / Us (2019) HDRip от Scarabey | Лицензия Galfimbul 782745600746 MB 0 0 1564590023

19:20

31-Июл-19

Зарубежные фильмы 2016-2018 (Новинки зарубежного кино) ·%· Мы / Us (2019) UHD BDRemux 2160p от ExKinoRay | 4K | HDR | Dolby Vision | Лицензия Galfimbul 6750935248962.87 GB 0 0 1564134749

12:52

26-Июл-19

Зарубежные фильмы 2016-2018 (Новинки зарубежного кино) ·%· Мы / Us (2019) UHD BDRemux 2160p от селезень | 4K | HDR | Лицензия Galfimbul 6131472824957.1 GB 0 0 1564108846

05:40

26-Июл-19

Зарубежные фильмы 2016-2018 (Новинки зарубежного кино) ·%· Мы / Us (2019) BDRemux 1080p от селезень | Лицензия Galfimbul 2935098461427.34 GB 0 0 1564107680

05:21

26-Июл-19

Зарубежные фильмы 2016-2018 (Новинки зарубежного кино) ·%· Мы / Us (2019) BDRip 1080p от селезень | Лицензия Galfimbul 1162989733610.83 GB 0 0 1564107126

05:12

26-Июл-19

Зарубежные фильмы 2016-2018 (Новинки зарубежного кино) ·%· Мы / Us (2019) UHD Blu-Ray EUR 2160p | 4K | HDR | Dolby Vision | Лицензия Galfimbul 9370926424787.27 GB 0 0 1564102810

04:00

26-Июл-19

Зарубежные фильмы 2016-2018 (Новинки зарубежного кино) ·%· Мы / Us (2019) BDRip 1080p от Талямбы | D | 60 fps Galfimbul 1399649800013.04 GB 0 0 1563536441

14:40

19-Июл-19

Зарубежные фильмы 2016-2018 (Новинки зарубежного кино) ·%· Мы / Us (2019) BDRip 1080p от Талямбы | 60 fps | iTunes Galfimbul 1399649806313.04 GB 0 0 1563133835

22:50

14-Июл-19

Зарубежные фильмы 2016-2018 (Новинки зарубежного кино) ·%· Мы / Us (2019) BDRip 720p от Scarabey | iTunes Galfimbul 53139385074.95 GB 0 0 1561917107

20:51

30-Июн-19

Зарубежные фильмы 2016-2018 (Новинки зарубежного кино) ·%· Мы / Us (2019) UHD BDRemux 2160p от селезень | 4K | HDR | Dolby Vision | iTunes Galfimbul 6728415511862.66 GB 0 0 1560701436

19:10

16-Июн-19

Зарубежные фильмы 2016-2018 (Новинки зарубежного кино) ·%· Мы / Us (2019) BDRip от Twister & ExKinoRay | iTunes Galfimbul 15147546701.41 GB 0 0 1560635417

00:50

16-Июн-19

Зарубежные фильмы 2016-2018 (Новинки зарубежного кино) ·%· Мы / Us (2019) BDRip от Twister & ExKinoRay | iTunes Galfimbul 22876073462.13 GB 0 0 1560635408

00:50

16-Июн-19

Зарубежные фильмы 2016-2018 (Новинки зарубежного кино) ·%· Мы / Us (2019) BDRemux 1080p от селезень | iTunes Galfimbul 2912723370927.13 GB 0 0 1560525636

18:20

14-Июн-19

Зарубежные фильмы 2016-2018 (Новинки зарубежного кино) ·%· Мы / Us (2019) HDRip-AVC | iTunes Galfimbul 20912463161.95 GB 0 0 1560500435

11:20

14-Июн-19

Зарубежные фильмы 2016-2018 (Новинки зарубежного кино) ·%· Мы / Us (2019) HDRip от Portablius | iTunes Galfimbul 782653440746 MB 0 0 1560325214

10:40

12-Июн-19

Зарубежные фильмы 2016-2018 (Новинки зарубежного кино) ·%· Мы / Us (2019) BDRip 720p от селезень | iTunes Galfimbul 41211004323.84 GB 0 0 1560261626

17:00

11-Июн-19

Зарубежные фильмы 2016-2018 (Новинки зарубежного кино) ·%· Мы / Us (2019) BDRip 1080p от селезень | iTunes Galfimbul 1140614329210.62 GB 0 0 1560235808

09:50

11-Июн-19

Зарубежные фильмы 2016-2018 (Новинки зарубежного кино) ·%· Мы / Us (2019) UHD BDRemux 2160p от селезень | 4K | HDR | iTunes Galfimbul 6109099920656.9 GB 0 0 1560199828

23:50

10-Июн-19

Зарубежные фильмы 2016-2018 (Новинки зарубежного кино) ·%· Мы / Us (2019) WEB-DLRip от Scarabey | iTunes Galfimbul 15522078721.45 GB 0 0 1558978229

20:30

27-Май-19

Зарубежные фильмы 2016-2018 (Новинки зарубежного кино) ·%· Мы / Us (2019) WEB-DLRip от Scarabey | iTunes Galfimbul 783728640747 MB 0 0 1558630208

19:50

23-Май-19

Еще никто не оставлял запись к записи скачать торрент Мы Us . Будь первым!

!Обратная связь