Скачать через торрент Мстители: Финал Avengers: Endgame Фильм бесплатно в хорошем качестве torrent

Скачивайте на UnionPeer.org фильмы через торрент без регистрации. Новинки кино в хорошем качестве через торрент. На UnionPeer.org можно скачать через торрент фильмы 2014 и 2015 годов. Самые новые фильмы.

Скачать торрент Мстители: Финал Avengers: Endgame бесплатно через .torrent фильм мультфильм сериал

Статистика раздачи
Размер:  3.86 GB   |    Зарегистрирован:  3 месяца 26 дней   |    .torrent скачан:  484 раза   |   
Раздают:  3  
   
загрузка...
 
Автор Сообщение

Galfimbul

avatar Galfimbul


Мстители: Финал /Avengers: Endgame

Год выхода: 2019
Жанр: фантастика, фэнтези, боевик, приключения

Режиссер: Энтони Руссо, Джо Руссо

В ролях: Роберт Дауни мл. Крис Эванс, Марк Руффало, Крис Хемсворт, Скарлетт Йоханссон, Джереми Реннер, Дон Чидл, Пол Радд, Чедвик Боузман, Бри Ларсон

О фильме: Оставшиеся в живых члены команды Мстителей и их союзники должны разработать новый план, который поможет противостоять разрушительным действиям могущественного титана Таноса. После наиболее масштабной и трагической битвы в истории они не могут допустить ошибку.



Страна: США
Продолжительность: 02:58:40
Перевод: Профессиональный (полное дублирование) | Line

Файл
Кодек: x.264
Качество: TC-AVC
Видео: AVC, 1280x544 (2.35:1), 24.000 fps, 2 500 kb/s
Аудио 1: AC-3, 48.0 kHz, 2 ch, 192 kb/s (Russian)
Аудио 2: AC-3, 48.0 kHz, 2 ch, 384 kb/s (English)
Субтитры: Китайские (вшитые)

Рекламы нет

Сэмпл
General
Unique ID : 224906914851422594230110713856873529862 (0xA9337F070AE360F5AC53981C9FC10206)
Complete name : Avengers.Endgame.2019.720p.TC.[Theseus].mkv
Format : Matroska
Format version : Version 4
File size : 3.86 GiB
Duration : 2 h 58 min
Overall bit rate : 3 093 kb/s
Encoded date : UTC 2019-05-24 18:58:47
Writing application : mkvmerge v8.3.0 ('Over the Horizon') 64bit
Writing library : libebml v1.3.1 + libmatroska v1.4.2

Video
ID : 1
Format : AVC
Format/Info : Advanced Video Codec
Format profile : High@L3.1
Format settings : CABAC / 3 Ref Frames
Format settings, CABAC : Yes
Format settings, ReFrames : 3 frames
Codec ID : V_MPEG4/ISO/AVC
Duration : 2 h 58 min
Bit rate : 2 500 kb/s
Width : 1 280 pixels
Height : 544 pixels
Display aspect ratio : 2.35:1
Frame rate mode : Constant
Frame rate : 24.000 FPS
Color space : YUV
Chroma subsampling : 4:2:0
Bit depth : 8 bits
Scan type : Progressive
Bits/(Pixel*Frame) : 0.150
Stream size : 3.14 GiB (81%)
Writing library : x264 core 152 r2851bm ba24899
Encoding settings : cabac=1 / ref=3 / deblock=1:0:0 / analyse=0x3:0x113 / me=hex / subme=7 / psy=1 / psy_rd=1.00:0.00 / mixed_ref=1 / me_range=16 / chroma_me=1 / trellis=1 / 8x8dct=1 / cqm=0 / deadzone=21,11 / fast_pskip=1 / chroma_qp_offset=-2 / threads=4 / lookahead_threads=4 / sliced_threads=1 / slices=4 / nr=0 / decimate=1 / interlaced=0 / bluray_compat=0 / constrained_intra=0 / bframes=0 / weightp=2 / keyint=250 / keyint_min=23 / scenecut=40 / intra_refresh=0 / rc=abr / mbtree=0 / bitrate=2500 / ratetol=1.0 / qcomp=0.60 / qpmin=0 / qpmax=69 / qpstep=4 / ip_ratio=1.40 / aq=1:1.00
Language : Chinese
Default : Yes
Forced : No

Audio #1
ID : 2
Format : AC-3
Format/Info : Audio Coding 3
Commercial name : Dolby Digital
Codec ID : A_AC3
Duration : 2 h 58 min
Bit rate mode : Constant
Bit rate : 192 kb/s
Channel(s) : 2 channels
Channel layout : L R
Sampling rate : 48.0 kHz
Frame rate : 31.250 FPS (1536 SPF)
Bit depth : 16 bits
Compression mode : Lossy
Stream size : 245 MiB (6%)
Language : Russian
Default : Yes
Forced : No

Audio #2
ID : 3
Format : AC-3
Format/Info : Audio Coding 3
Commercial name : Dolby Digital
Codec ID : A_AC3
Duration : 2 h 58 min
Bit rate mode : Constant
Bit rate : 384 kb/s
Channel(s) : 2 channels
Channel layout : L R
Sampling rate : 48.0 kHz
Frame rate : 31.250 FPS (1536 SPF)
Bit depth : 16 bits
Compression mode : Lossy
Delay relative to video : 9 ms
Stream size : 491 MiB (12%)
Language : English
Default : No
Forced : No
Источник http://BlaTor.org

Трекер:  [ 24-Май-2019 22:50 ]

  

Скачать .torrent

Размер .torrent файла 19 KB


Размер: 3.86 GB
Хэш (hash) релиза: 68f46d7bad1bbb8204a1097170f824f53e19bc66
Подписка на обновления:

Торренты, похожие на Мстители: Финал Avengers: Endgame скачать торрент

Форум Название Автор Размер S L Добавлен
Зарубежные фильмы 2016-2018 (Новинки зарубежного кино) ·%· Мстители: Финал / Avengers: Endgame (2019) BDRip 1080p от Ash61 | 3D-Video | halfOU | iTunes Galfimbul 1857177043817.3 GB 0 0 1566565996

16:13

23-Авг-19

Зарубежные фильмы 2016-2018 (Новинки зарубежного кино) ·%· Мстители: Финал / Avengers: Endgame (2019) BDRip от MegaPeer | iTunes Galfimbul 30396537962.83 GB 0 0 1564903325

10:22

4-Авг-19

Зарубежные фильмы 2016-2018 (Новинки зарубежного кино) ·%· Мстители: Финал / Avengers: Endgame (2019) BDRip-AVC от HELLYWOOD | iTunes Galfimbul 22562544332.1 GB 0 0 1564887756

06:02

4-Авг-19

Зарубежные фильмы 2016-2018 (Новинки зарубежного кино) ·%· Мстители: Финал / Avengers: Endgame (2019) BDRip от Twister & ExKinoRay | iTunes Galfimbul 23456151122.18 GB 2 0 1564872632

01:50

4-Авг-19

Зарубежные фильмы 2016-2018 (Новинки зарубежного кино) ·%· Мстители: Финал / Avengers: Endgame (2019) BDRip от Twister & ExKinoRay | iTunes Galfimbul 15661084661.46 GB 0 0 1564860698

22:31

3-Авг-19

Зарубежные фильмы 2016-2018 (Новинки зарубежного кино) ·%· Мстители: Финал / Avengers: Endgame (2019) HDRip-AVC от New-Team | D Galfimbul 31482616042.93 GB 2 0 1564769413

21:10

2-Авг-19

Зарубежные фильмы 2016-2018 (Новинки зарубежного кино) ·%· Мстители: Финал / Avengers: Endgame (2019) HDRip от GeneralFilm | iTunes Galfimbul 15728906241.46 GB 0 0 1564719019

07:10

2-Авг-19

Зарубежные фильмы 2016-2018 (Новинки зарубежного кино) ·%· Мстители: Финал / Avengers: Endgame (2019) HDRip-AVC от OlLanDGroup | D, P | iTunes Galfimbul 23426900502.18 GB 2 0 1564691458

23:30

1-Авг-19

Зарубежные фильмы 2016-2018 (Новинки зарубежного кино) ·%· Мстители: Финал / Avengers: Endgame (2019) HDRip от MegaPeer | iTunes Galfimbul 15647763561.46 GB 0 0 1564687847

22:30

1-Авг-19

Зарубежные фильмы 2016-2018 (Новинки зарубежного кино) ·%· Мстители: Финал / Avengers: Endgame (2019) HDRip-AVC от OlLanDGroup | D, P | iTunes Galfimbul 38225512863.56 GB 0 0 1564687834

22:30

1-Авг-19

Зарубежные фильмы 2016-2018 (Новинки зарубежного кино) ·%· Мстители: Финал / Avengers: Endgame (2019) BDRip 1080p от селезень | D, P | iTunes Galfimbul 1881391903217.52 GB 6 0 1564686025

22:00

1-Авг-19

Зарубежные фильмы 2016-2018 (Новинки зарубежного кино) ·%· Мстители: Финал / Avengers: Endgame (2019) BDRip 720p от ExKinoRay | P Galfimbul 84236255367.85 GB 0 0 1564623049

04:30

1-Авг-19

Зарубежные фильмы 2016-2018 (Новинки зарубежного кино) ·%· Мстители: Финал / Avengers: Endgame (2019) BDRip 1080p | P | D | Line Galfimbul 1460737923813.6 GB 2 0 1564582876

17:21

31-Июл-19

Зарубежные фильмы 2016-2018 (Новинки зарубежного кино) ·%· Мстители: Финал / Avengers: Endgame (2019) WEB-DL 1080p от ExKinoRay | P Galfimbul 73013021986.8 GB 0 0 1564525242

01:20

31-Июл-19

Зарубежные фильмы 2016-2018 (Новинки зарубежного кино) ·%· Мстители: Финал / Avengers: Endgame (2019) WEB-DLRip-AVC | D | Line Galfimbul 33648227213.13 GB 0 0 1564516813

23:00

30-Июл-19

Зарубежные фильмы 2016-2018 (Новинки зарубежного кино) ·%· Мстители: Финал / Avengers: Endgame (2019) WEB-DL 1080p | D | Line Galfimbul 69487379476.47 GB 3 0 1564480844

13:00

30-Июл-19

Зарубежные фильмы 2016-2018 (Новинки зарубежного кино) ·%· Мстители: Финал / Avengers: Endgame (2019) TC от Dalemake | Line Galfimbul 23521873922.19 GB 0 0 1558610446

14:20

23-Май-19

Зарубежные фильмы 2016-2018 (Новинки зарубежного кино) ·%· Мстители: Финал / Avengers: Endgame (2019) WEBRip 1080p | Трейлер №2 Galfimbul 662140793631 MB 0 0 1552658415

17:00

15-Мар-19

Зарубежные фильмы 2016-2018 (Новинки зарубежного кино) ·%· Мстители: Финал / Avengers: Endgame (2019) HDRip 1080p | Тизер Galfimbul 750003029715 MB 0 0 1544698812

14:00

13-Дек-18

Еще никто не оставлял запись к записи скачать торрент Мстители: Финал Avengers: Endgame . Будь первым!

!Обратная связь