Скачать через торрент Лига справедливости против Смертоносной пятерки Justice League vs. the Fatal Five Фильм бесплатно в хорошем качестве torrent

Скачивайте на UnionPeer.org фильмы через торрент без регистрации. Новинки кино в хорошем качестве через торрент. На UnionPeer.org можно скачать через торрент фильмы 2014 и 2015 годов. Самые новые фильмы.

Скачать торрент Лига справедливости против Смертоносной пятерки Justice League vs. the Fatal Five бесплатно через .torrent фильм мультфильм сериал

Статистика раздачи
Размер:  2.08 GB   |    Зарегистрирован:  3 месяца 12 дней   |    .torrent скачан:  149 раз   |   
Раздают:  1  
   
загрузка...
 
Автор Сообщение

Galfimbul

avatar Galfimbul


Лига справедливости против Смертоносной пятерки /Justice League vs. the Fatal Five

Год выхода: 2019
Жанр: Мультфильм
, фантастика, фэнтези, боевик
Режиссер: Сэм Лью / Sam Liu
Роли озвучивали: Элиес Габел, Дайан Герреро, Кевин Конрой, Сьюзэн Эйзенберг, Джордж Ньюберн, Даниэла Бобадилла, Кевин Майкл Ричардсон, Ноэль Фишер, Питер Джессоп, Том Кенни.

О фильме:
Судьба Земли висит на волоске и Лиге придется столкнуться с новой командой суперзлодеев, путешествующих во времени, которая прибывает в Метрополис в поисках Джессики Круз, начинающего Зеленого Фонаря. С ее помощью Мано, Убеждатель и Тарок собираются освободить еще двоих членов команды, Изумрудную Императрицу и Валидуса.



Страна: США
Студия: DC Entertainment, Warner Bros. Animation
Продолжительность: 01:17:30

Файл
Качество: BDRip 720p by x0r
Кодек: H264
Видео: 1280x720 (16:9), 23.976 fps, MPEG-4 AVC ~2560 kbps
Аудио: AC3 2.0, 48.0 kHz, 192 kbps | Профессиональный (многоголосый, закадровый) HDrezka Studio
Аудио: AC3 5.1, 48.0 kHz, 448 kbps | Любительский (многоголосый, закадровый) Flarrow Films
Аудио: AC3 5.1, 48.0 kHz, 448 kbps | English
Аудио: AC3 2.0, 48.0 kHz, 192 kbps | Commentary (English)
Субтитры: Русские от UGN SUBZ Translators и Английские (srt)
General
Unique ID : 254924962207519849886553773909006899150 (0xBFC8C3073511B3158D6CA0A9CFF457CE)
Complete name : E:[NewSeriesHD] Justice League vs the Fatal Five (2019) [2xRUS]+[ENG]+[Eng Comment] [Sub RUS]+[ENG] {BDRip 720p by x0r}.mkv
Format : Matroska
Format version : Version 4 / Version 2
File size : 2.08 GiB
Duration : 1 h 17 min
Overall bit rate : 3 844 kb/s
Movie name : NewSeriesHD
Encoded date : UTC 2019-06-07 20:22:42
Writing application : mkvmerge v8.0.0 ('Til The Day That I Die') 32bit
Writing library : libebml v1.3.1 + libmatroska v1.4.2

Video
ID : 1
Format : AVC
Format/Info : Advanced Video Codec
Format profile : High@L4
Format settings : CABAC / 8 Ref Frames
Format settings, CABAC : Yes
Format settings, ReFrames : 8 frames
Codec ID : V_MPEG4/ISO/AVC
Duration : 1 h 17 min
Bit rate : 2 560 kb/s
Width : 1 280 pixels
Height : 720 pixels
Display aspect ratio : 16:9
Frame rate mode : Constant
Frame rate : 23.976 (24000/1001) FPS
Color space : YUV
Chroma subsampling : 4:2:0
Bit depth : 8 bits
Scan type : Progressive
Bits/(Pixel*Frame) : 0.116
Stream size : 1.39 GiB (67%)
Writing library : x264 core 148 r2795 aaa9aa8
Encoding settings : cabac=1 / ref=8 / deblock=1:-2:-2 / analyse=0x3:0x133 / me=umh / subme=9 / psy=1 / psy_rd=1.00:0.25 / mixed_ref=1 / me_range=24 / chroma_me=1 / trellis=2 / 8x8dct=1 / cqm=0 / deadzone=21,11 / fast_pskip=1 / chroma_qp_offset=-4 / threads=22 / lookahead_threads=2 / sliced_threads=0 / nr=0 / decimate=1 / interlaced=0 / bluray_compat=0 / constrained_intra=0 / bframes=4 / b_pyramid=2 / b_adapt=2 / b_bias=0 / direct=3 / weightb=1 / open_gop=0 / weightp=2 / keyint=240 / keyint_min=24 / scenecut=40 / intra_refresh=0 / rc_lookahead=40 / rc=2pass / mbtree=1 / bitrate=2560 / ratetol=1.0 / qcomp=0.60 / qpmin=0 / qpmax=69 / qpstep=4 / cplxblur=20.0 / qblur=0.5 / vbv_maxrate=20000 / vbv_bufsize=25000 / nal_hrd=none / filler=0 / ip_ratio=1.40 / aq=1:1.00
Language : English
Default : Yes
Forced : No
Color range : Limited
Color primaries : BT.709
Transfer characteristics : BT.709
Matrix coefficients : BT.709

Audio #1
ID : 2
Format : AC-3
Format/Info : Audio Coding 3
Commercial name : Dolby Digital
Codec ID : A_AC3
Duration : 1 h 17 min
Bit rate mode : Constant
Bit rate : 192 kb/s
Channel(s) : 2 channels
Channel positions : Front: L R
Sampling rate : 48.0 kHz
Frame rate : 31.250 FPS (1536 SPF)
Bit depth : 16 bits
Compression mode : Lossy
Delay relative to video : -5 ms
Stream size : 106 MiB (5%)
Title : MVO, HDrezka Studio
Language : Russian
Service kind : Complete Main
Default : Yes
Forced : No

Audio #2
ID : 3
Format : AC-3
Format/Info : Audio Coding 3
Commercial name : Dolby Digital
Codec ID : A_AC3
Duration : 1 h 17 min
Bit rate mode : Constant
Bit rate : 448 kb/s
Channel(s) : 6 channels
Channel positions : Front: L C R, Side: L R, LFE
Sampling rate : 48.0 kHz
Frame rate : 31.250 FPS (1536 SPF)
Bit depth : 16 bits
Compression mode : Lossy
Delay relative to video : -5 ms
Stream size : 248 MiB (12%)
Title : MVO, Flarrow Films
Language : Russian
Service kind : Complete Main
Default : No
Forced : No

Audio #3
ID : 4
Format : AC-3
Format/Info : Audio Coding 3
Commercial name : Dolby Digital
Codec ID : A_AC3
Duration : 1 h 17 min
Bit rate mode : Constant
Bit rate : 448 kb/s
Channel(s) : 6 channels
Channel positions : Front: L C R, Side: L R, LFE
Sampling rate : 48.0 kHz
Frame rate : 31.250 FPS (1536 SPF)
Bit depth : 16 bits
Compression mode : Lossy
Stream size : 248 MiB (12%)
Title : Original
Language : English
Service kind : Complete Main
Default : No
Forced : No

Audio #4
ID : 5
Format : AC-3
Format/Info : Audio Coding 3
Commercial name : Dolby Digital
Codec ID : A_AC3
Duration : 1 h 17 min
Bit rate mode : Constant
Bit rate : 192 kb/s
Channel(s) : 2 channels
Channel positions : Front: L R
Sampling rate : 48.0 kHz
Frame rate : 31.250 FPS (1536 SPF)
Bit depth : 16 bits
Compression mode : Lossy
Stream size : 106 MiB (5%)
Title : Commentary
Language : English
Service kind : Complete Main
Default : No
Forced : No

Text #1
ID : 6
Format : UTF-8
Codec ID : S_TEXT/UTF8
Codec ID/Info : UTF-8 Plain Text
Duration : 1 h 13 min
Bit rate : 72 b/s
Count of elements : 766
Stream size : 39.1 KiB (0%)
Title : UGN SUBZ Translators
Language : Russian
Default : No
Forced : No

Text #2
ID : 7
Format : UTF-8
Codec ID : S_TEXT/UTF8
Codec ID/Info : UTF-8 Plain Text
Duration : 1 h 16 min
Bit rate : 37 b/s
Count of elements : 672
Stream size : 21.2 KiB (0%)
Title : English
Language : English
Default : No
Forced : No

Text #3
ID : 8
Format : UTF-8
Codec ID : S_TEXT/UTF8
Codec ID/Info : UTF-8 Plain Text
Duration : 1 h 16 min
Bit rate : 42 b/s
Count of elements : 886
Stream size : 23.6 KiB (0%)
Title : English-SDH
Language : English
Default : No
Forced : No

Menu
00:00:00.000 : :Cap?­tulo 01
00:10:46.396 : :Cap?­tulo 02
00:21:41.091 : :Cap?­tulo 03
00:31:03.862 : :Cap?­tulo 04
00:42:55.323 : :Cap?­tulo 05
00:54:12.791 : :Cap?­tulo 06
01:03:17.836 : :Cap?­tulo 07
01:14:21.457 : :Cap?­tulo 08
Релиз от NewSeriesHD
Источник http://BlaTor.org

Трекер:  [ 08-Июн-2019 06:50 ]

  

Скачать .torrent

Размер .torrent файла 11 KB


Размер: 2.08 GB
Хэш (hash) релиза: 9eb3a2bbe4c29aeca803faf94ce63d279a6f7092
Подписка на обновления:

Торренты, похожие на Лига справедливости против Смертоносной пятерки Justice League vs. the Fatal Five скачать торрент

Форум Название Автор Размер S L Добавлен
Мультфильмы 2016-2018 (Новинки мультфильмов) ·%· Лига справедливости против Смертоносной пятерки / Justice League vs. the Fatal Five (2019) BDRip 1080p от NewSeriesHD | P, L Galfimbul 40876924023.81 GB 0 0 1559965822

06:50

8-Июн-19

Еще никто не оставлял запись к записи скачать торрент Лига справедливости против Смертоносной пятерки Justice League vs. the Fatal Five . Будь первым!

!Обратная связь