Скачать через торрент Спасти Ленинград Фильм бесплатно в хорошем качестве torrent

Скачивайте на UnionPeer.org фильмы через торрент без регистрации. Новинки кино в хорошем качестве через торрент. На UnionPeer.org можно скачать через торрент фильмы 2014 и 2015 годов. Самые новые фильмы.

Скачать торрент Спасти Ленинград бесплатно через .torrent фильм мультфильм сериал

Статистика раздачи
Размер:  2.88 GB   |    Зарегистрирован:  18 дней   |    .torrent скачан:  171 раз   |   
Раздают:  3  
   
загрузка...
 
Автор Сообщение

Galfimbul

avatar Galfimbul


Спасти Ленинград



[b]Год выхода:
2019
Жанр: Драма, военный
Страна: Россия
Перевод: Не требуется
Продолжительность: 01:37:12
Режиссер: Алексей Козлов
В ролях: Мария Мельникова, Андрей Миронов-Удалов, Гела Месхи, Анастасия Мельникова, Валерий Дегтярь, Марина Комарова, Виталий Кищенко, Алексей Шевченков, Борис Щербаков, Инга Оболдина и др.

О фильме: Сентябрь 1941 года. Юные влюбленные Костя и Настя волею обстоятельств оказываются на барже, которая должна вывезти людей из блокадного Ленинграда. Ночью судно попадает в шторм и терпит бедствие, на месте трагедии первыми оказываются вовсе не спасатели, а вражеские самолеты.



Формат: MKV
Качество: WEB-DLRip 720p
Видео: MPEG-4 AVC, 1280x534 (2.40:1), 24.000 fps, 3849 Kbps, 0.235 bit/pixel
Аудио: 48 kHz, AC3, 5.1, 384 Kbps | iTunes | RUS |
Субтитры: английские (полные)
General
Unique ID : 175482593946248924725390226865666981647 (0x8404B7DE9354695C9929A5E46D98FF0F)
Complete name : F:Spasti.Leningrad.2018.WEBDL.720p.ExKinoRay.mkv
Format : Matroska
Format version : Version 2
File size : 2.88 GiB
Duration : 1 h 37 min
Overall bit rate : 4 236 kb/s
Movie name : Спасти Ленинград 2019 from ExKinoRay
Encoded date : UTC 2019-05-21 04:43:59
Writing application : mkvmerge v5.6.0 ('Kenya Kane') built on May 27 2012 16:44:04
Writing library : libebml v1.2.3 + libmatroska v1.3.0

Video
ID : 1
Format : AVC
Format/Info : Advanced Video Codec
Format profile : High@L4.1
Format settings, CABAC : Yes
Format settings, ReFrames : 11 frames
Codec ID : V_MPEG4/ISO/AVC
Duration : 1 h 37 min
Bit rate : 3 849 kb/s
Width : 1 280 pixels
Height : 534 pixels
Display aspect ratio : 2.40:1
Frame rate mode : Constant
Frame rate : 24.000 FPS
Color space : YUV
Chroma subsampling : 4:2:0
Bit depth : 8 bits
Scan type : Progressive
Bits/(Pixel*Frame) : 0.235
Stream size : 2.56 GiB (89%)
Title : Enigma
Writing library : x264 core 152 r2851 ba24899
Encoding settings : cabac=1 / ref=11 / deblock=1:-2:-2 / analyse=0x3:0x113 / me=umh / subme=10 / psy=1 / psy_rd=1.03:0.08 / mixed_ref=1 / me_range=32 / chroma_me=1 / trellis=2 / 8x8dct=1 / cqm=0 / deadzone=21,11 / fast_pskip=0 / chroma_qp_offset=-3 / threads=12 / lookahead_threads=2 / sliced_threads=0 / nr=0 / decimate=0 / interlaced=0 / bluray_compat=0 / constrained_intra=0 / bframes=9 / b_pyramid=2 / b_adapt=2 / b_bias=0 / direct=3 / weightb=1 / open_gop=0 / weightp=2 / keyint=240 / keyint_min=24 / scenecut=40 / intra_refresh=0 / rc=2pass / mbtree=0 / bitrate=3849 / ratetol=1.0 / qcomp=0.60 / qpmin=0 / qpmax=51 / qpstep=4 / cplxblur=20.0 / qblur=0.5 / ip_ratio=1.30 / pb_ratio=1.20 / aq=1:1.00
Language : English
Default : Yes
Forced : No
Color range : Limited
Color primaries : BT.709
Transfer characteristics : BT.709
Matrix coefficients : BT.709

Audio
ID : 2
Format : AC-3
Format/Info : Audio Coding 3
Mode extension : CM (complete main)
Format settings, Endianness : Big
Codec ID : A_AC3
Duration : 1 h 37 min
Bit rate mode : Constant
Bit rate : 384 kb/s
Channel(s) : 6 channels
Channel positions : Front: L C R, Side: L R, LFE
Sampling rate : 48.0 kHz
Frame rate : 31.250 FPS (1536 spf)
Compression mode : Lossy
Stream size : 267 MiB (9%)
Language : Russian
Default : Yes
Forced : No

Text
ID : 3
Format : UTF-8
Codec ID : S_TEXT/UTF8
Codec ID/Info : UTF-8 Plain Text
Language : English
Default : No
Forced : No

Menu
00:00:00.000 : ru:Глава 1
00:09:04.291 : ru:Глава 2
00:17:19.666 : ru:Глава 3
00:25:25.291 : ru:Глава 4
00:33:30.332 : ru:Глава 5
00:41:45.207 : ru:Глава 6
00:49:56.248 : ru:Глава 7
00:58:28.331 : ru:Глава 8
01:06:43.331 : ru:Глава 9
01:15:41.539 : ru:Глава 10
01:23:56.747 : ru:Глава 11


Автор релиза:
Источник http://BlaTor.org

Трекер:  [ 08-Июн-2019 08:10 ]

  

Скачать .torrent

Размер .torrent файла 15 KB


Размер: 2.88 GB
Хэш (hash) релиза: 1110040b0986812696ef77d43d431316553ab654
Подписка на обновления:

Торренты, похожие на Спасти Ленинград скачать торрент

Форум Название Автор Размер S L Добавлен
Российские фильмы 2016-2018 (Новинки русского кино) ·%· Спасти Ленинград (2019) WEB-DLRip от Scarabey | iTunes Galfimbul 15515504641.44 GB 0 0 1551724914

21:41

4-Мар-19

Российские фильмы 2016-2018 (Новинки русского кино) ·%· Спасти Ленинград (2019) WEB-DLRip-AVC от OlLanDGroup | iTunes Galfimbul 15671980631.46 GB 0 0 1551699044

14:30

4-Мар-19

Российские фильмы 2016-2018 (Новинки русского кино) ·%· Спасти Ленинград (2019) WEB-DLRip от Generalfilm | КПК | iTunes Galfimbul 387765694370 MB 0 0 1551694243

13:10

4-Мар-19

Российские фильмы 2016-2018 (Новинки русского кино) ·%· Спасти Ленинград (2019) WEB-DLRip от GeneralFilm | iTunes Galfimbul 781563904745 MB 0 0 1551673814

07:30

4-Мар-19

Российские фильмы 2016-2018 (Новинки русского кино) ·%· Спасти Ленинград (2019) WEB-DLRip | iTunes Galfimbul 15629156301.46 GB 0 0 1551647430

00:10

4-Мар-19

Российские фильмы 2016-2018 (Новинки русского кино) ·%· Спасти Ленинград (2019) WEB-DL 1080p | iTunes Galfimbul 35434934753.3 GB 3 0 1551646234

23:50

3-Мар-19

Еще никто не оставлял запись к записи скачать торрент Спасти Ленинград . Будь первым!

!Обратная связь