Скачать через торрент Константин: Город демонов Constantine City of Demons: The Movie Фильм бесплатно в хорошем качестве torrent

Скачивайте на UnionPeer.org фильмы через торрент без регистрации. Новинки кино в хорошем качестве через торрент. На UnionPeer.org можно скачать через торрент фильмы 2014 и 2015 годов. Самые новые фильмы.

Скачать торрент Константин: Город демонов Constantine City of Demons: The Movie бесплатно через .torrent фильм мультфильм сериал

Статистика раздачи
Размер:  4.22 GB   |    Зарегистрирован:  3 месяца 9 дней   |    .torrent скачан:  78 раз   |   
Раздают:  1  
   
загрузка...
 
Автор Сообщение

Galfimbul

avatar Galfimbul


Константин: Город демонов /Constantine: City of Demons. The Movie

Год выхода: 2018
Жанр: Мультфильм
, драма, ужасы
Режиссер: Даг Мерфи / Doug Murphy
Роли озвучивали: Лора Бэйли, Робин Аткин Даунс, Мэтт Райан, Кевин Майкл Ричардсон, Джим Мескимен, Эмили О’Брайэн, Рэйчел Кимси, Дэмиан О’Хейр, Рик Д. Вассерман.

О фильме:
Однажды к Джону приходит его лучший друг Чез, с которым они не виделись вот уже несколько лет. Но вместо радостной встречи старых приятелей, Чез поведал Константину трагическую историю. Его любимая и единственная дочка Триш впала в кому, и врачи в её случае лишь разводят руками, не зная, как и чем можно помочь девочке. Но Чез убеждён, что дело вовсе не в болезни, его дочь стала жертвой чёрной магии. Константин решает взяться за расследование и помочь своему лучшему другу в его беде.



Страна: США
Студия: DC Entertainment, Warner Bros. Animation
Продолжительность: 01:30:09

Файл
Качество: BDRip 1080p by W4F
Кодек: H264
Видео: 1920x1080 (16:9), 23.976 fps, MPEG-4 AVC ~5419 kbps
Аудио: AC3 2.0, 48.0 kHz, 192 kbps | Профессиональный (многоголосый, закадровый) HDrezka Studio
Аудио: AC3 5.1, 48.0 kHz, 448 kbps | Любительский (многоголосый, закадровый) Flarrow Films
Аудио: AC3 2.0, 48.0 kHz, 192 kbps | Любительский (двухголосый, закадровый) ColdFilm
Аудио: AC3 5.1, 48.0 kHz, 448 kbps | English
Субтитры: Русские от UGN SUBZ Translators и Английские (srt)
General
Unique ID : 226865793579501153059211988861540693227 (0xAAACC33496C47F2C89D933BFC324F4EB)
Complete name : E:[NewSeriesHD] Constantine City of Demons. The Movie (2018) [3xRUS]+[ENG] [Sub RUS]+[ENG] {BDRip 1080p by W4F}.mkv
Format : Matroska
Format version : Version 4 / Version 2
File size : 4.22 GiB
Duration : 1 h 30 min
Overall bit rate : 6 701 kb/s
Movie name : Constantine: City of Demons. The Movie (2018) BDRip 1080p by W4F - Release NewSeriesHD
Encoded date : UTC 2019-06-10 15:24:43
Writing application : mkvmerge v8.0.0 ('Til The Day That I Die') 32bit
Writing library : libebml v1.3.1 + libmatroska v1.4.2

Video
ID : 1
Format : AVC
Format/Info : Advanced Video Codec
Format profile : High@L4.1
Format settings : CABAC / 4 Ref Frames
Format settings, CABAC : Yes
Format settings, ReFrames : 4 frames
Codec ID : V_MPEG4/ISO/AVC
Duration : 1 h 30 min
Bit rate : 5 419 kb/s
Width : 1 920 pixels
Height : 1 080 pixels
Display aspect ratio : 16:9
Frame rate mode : Constant
Frame rate : 23.976 (24000/1001) FPS
Color space : YUV
Chroma subsampling : 4:2:0
Bit depth : 8 bits
Scan type : Progressive
Bits/(Pixel*Frame) : 0.109
Stream size : 3.41 GiB (81%)
Writing library : x264 core 157 r2935 545de2f
Encoding settings : cabac=1 / ref=4 / deblock=1:1:1 / analyse=0x3:0x113 / me=umh / subme=8 / psy=1 / psy_rd=0.40:0.00 / mixed_ref=1 / me_range=24 / chroma_me=1 / trellis=1 / 8x8dct=1 / cqm=0 / deadzone=21,11 / fast_pskip=1 / chroma_qp_offset=-2 / threads=30 / lookahead_threads=5 / sliced_threads=0 / nr=0 / decimate=1 / interlaced=0 / bluray_compat=0 / constrained_intra=0 / bframes=5 / b_pyramid=2 / b_adapt=1 / b_bias=0 / direct=3 / weightb=1 / open_gop=0 / weightp=2 / keyint=240 / keyint_min=24 / scenecut=40 / intra_refresh=0 / rc_lookahead=50 / rc=2pass / mbtree=1 / bitrate=5419 / ratetol=1.0 / qcomp=0.60 / qpmin=0 / qpmax=69 / qpstep=4 / cplxblur=20.0 / qblur=0.5 / ip_ratio=1.40 / aq=1:0.60
Default : Yes
Forced : No

Audio #1
ID : 2
Format : AC-3
Format/Info : Audio Coding 3
Commercial name : Dolby Digital
Codec ID : A_AC3
Duration : 1 h 30 min
Bit rate mode : Constant
Bit rate : 192 kb/s
Channel(s) : 2 channels
Channel positions : Front: L R
Sampling rate : 48.0 kHz
Frame rate : 31.250 FPS (1536 SPF)
Bit depth : 16 bits
Compression mode : Lossy
Stream size : 124 MiB (3%)
Title : MVO, HDrezka Studio
Language : Russian
Service kind : Complete Main
Default : Yes
Forced : No

Audio #2
ID : 3
Format : AC-3
Format/Info : Audio Coding 3
Commercial name : Dolby Digital
Codec ID : A_AC3
Duration : 1 h 30 min
Bit rate mode : Constant
Bit rate : 448 kb/s
Channel(s) : 6 channels
Channel positions : Front: L C R, Side: L R, LFE
Sampling rate : 48.0 kHz
Frame rate : 31.250 FPS (1536 SPF)
Bit depth : 16 bits
Compression mode : Lossy
Stream size : 289 MiB (7%)
Title : MVO, Flarrow Films
Language : Russian
Service kind : Complete Main
Default : No
Forced : No

Audio #3
ID : 4
Format : AC-3
Format/Info : Audio Coding 3
Commercial name : Dolby Digital
Codec ID : A_AC3
Duration : 1 h 30 min
Bit rate mode : Constant
Bit rate : 192 kb/s
Channel(s) : 2 channels
Channel positions : Front: L R
Sampling rate : 48.0 kHz
Frame rate : 31.250 FPS (1536 SPF)
Bit depth : 16 bits
Compression mode : Lossy
Stream size : 124 MiB (3%)
Title : DVO, ColdFilm
Language : Russian
Service kind : Complete Main
Default : No
Forced : No

Audio #4
ID : 5
Format : AC-3
Format/Info : Audio Coding 3
Commercial name : Dolby Digital
Codec ID : A_AC3
Duration : 1 h 30 min
Bit rate mode : Constant
Bit rate : 448 kb/s
Channel(s) : 6 channels
Channel positions : Front: L C R, Side: L R, LFE
Sampling rate : 48.0 kHz
Frame rate : 31.250 FPS (1536 SPF)
Bit depth : 16 bits
Compression mode : Lossy
Stream size : 289 MiB (7%)
Title : Original
Language : English
Service kind : Complete Main
Default : No
Forced : No

Text #1
ID : 6
Format : UTF-8
Codec ID : S_TEXT/UTF8
Codec ID/Info : UTF-8 Plain Text
Duration : 1 h 27 min
Bit rate : 94 b/s
Count of elements : 1101
Stream size : 60.3 KiB (0%)
Title : UGN SUBZ Translators
Language : Russian
Default : No
Forced : No

Text #2
ID : 7
Format : UTF-8
Codec ID : S_TEXT/UTF8
Codec ID/Info : UTF-8 Plain Text
Duration : 1 h 27 min
Bit rate : 56 b/s
Count of elements : 1355
Stream size : 36.4 KiB (0%)
Title : English
Language : English
Default : No
Forced : No

Text #3
ID : 8
Format : UTF-8
Codec ID : S_TEXT/UTF8
Codec ID/Info : UTF-8 Plain Text
Duration : 1 h 26 min
Bit rate : 51 b/s
Count of elements : 1157
Stream size : 32.7 KiB (0%)
Title : English SDH
Language : English
Default : No
Forced : No

Menu
00:00:00.000 : en:00:00:00.000
00:14:02.717 : en:00:14:02.717
00:24:02.566 : en:00:24:02.566
00:34:51.423 : en:00:34:51.423
00:48:08.844 : en:00:48:08.844
00:55:09.890 : en:00:55:09.890
01:03:57.375 : en:01:03:57.375
01:10:39.110 : en:01:10:39.110
01:22:02.876 : en:01:22:02.876
01:27:28.702 : en:01:27:28.702
Релиз от NewSeriesHD
Источник http://BlaTor.org

Трекер:  [ 10-Июн-2019 21:50 ]

  

Скачать .torrent

Размер .torrent файла 21 KB


Размер: 4.22 GB
Хэш (hash) релиза: 9015dbb2101c23192ec2c8b5c96bb9da6c781662
Подписка на обновления:

Торренты, похожие на Константин: Город демонов Constantine City of Demons: The Movie скачать торрент

Форум Название Автор Размер S L Добавлен
Мультфильмы 2016-2018 (Новинки мультфильмов) ·%· Константин: Город демонов / Constantine City of Demons: The Movie (2018) BDRip 720p от NewSeriesHD | P, L Galfimbul 26784429522.49 GB 0 0 1560184272

19:31

10-Июн-19

Мультфильмы 2016-2018 (Новинки мультфильмов) ·%· Константин: Город демонов / Constantine City of Demons: The Movie (2018) BDRip от ExKinoRay | P Galfimbul 14658519041.37 GB 2 0 1555986612

05:30

23-Апр-19

Еще никто не оставлял запись к записи скачать торрент Константин: Город демонов Constantine City of Demons: The Movie . Будь первым!

!Обратная связь