Скачать через торрент Как приручить дракона 3 How to Train Your Dragon: The Hidden World Фильм бесплатно в хорошем качестве torrent

Скачивайте на UnionPeer.org фильмы через торрент без регистрации. Новинки кино в хорошем качестве через торрент. На UnionPeer.org можно скачать через торрент фильмы 2014 и 2015 годов. Самые новые фильмы.

Скачать торрент Как приручить дракона 3 How to Train Your Dragon: The Hidden World бесплатно через .torrent фильм мультфильм сериал

Статистика раздачи
Размер:  5.06 GB   |    Зарегистрирован:  3 месяца 9 дней   |    .torrent скачан:  75 раз   |   
Раздают:  1  
   
загрузка...
 
Автор Сообщение

Galfimbul

avatar Galfimbul


Как приручить дракона 3 /How to Train Your Dragon: The Hidden World

Год выхода: 2019
Жанр: Мультфильм, фэнтези, боевик, комедия, приключения, семейный, полнометражный
Режиссер: Дин ДеБлуа
В ролях: Кейт Бланшетт, Джерард Батлер, Джона Хилл, Кит Харингтон, Кристен Уиг, Джей Барушель, Кристофер Минц-Плассе, Америка Феррера, Оулавюр Дарри Оулафссон, Ф. Мюррэй Абрахам, Крэйг Фергюсон, Джастин Руппл



О фильме: Когда-то викинги жили в гармонии с драконами. В те времена они делили радость, горе… и последние штаны. Казалось, что так будет всегда, но появление загадочной Дневной Фурии изменило жизнь острова. И теперь Иккинг и Беззубик столкнутся с безжалостным охотником на драконов, жаждущим уничтожить все, что им дорого.

Страна: США
Студия: DreamWorks Animation, Mad Hatter Entertainment
Продолжительность: 01:44:06
Перевод(ы):
#1: Дублированный | Лицензия
#2: Профессиональный многоголосый | HDRezka Studio

Качество: BDRip 720p
Видео: MPEG-4 AVC, 1280x544, 5675 Kbit/s, 23.976 fps
Звук:
Аудио #01: 48 kHz, AC3, 5.1, 640 Kbps | Дублированный | RUS |
Аудио #02: 48 kHz, AC3, 2.0, 192 Kbps | HDRezka Studio | RUS |
Аудио #03: 48 kHz, AC3, 5.1, 448 Kbps | Оригинал | ENG |
Субтитры: Русские (full), английские

General
Unique ID : 134047318797493780374705589031705446504 (0x64D89313FC11E2E81647884418CF0868)
Complete name : D:Video111How.to.Train.Your.Dragon.The.Hidden.World.2019.BDRip.720p.seleZen.mkv
Format : Matroska
Format version : Version 4
File size : 5.06 GiB
Duration : 1 h 44 min
Overall bit rate : 6 957 kb/s
Movie name : How to Train Your Dragon The Hidden World 2019 from селезень
Encoded date : UTC 2019-06-10 21:21:17
Writing application : mkvmerge v33.1.0 ('Primrose') 64-bit
Writing library : libebml v1.3.7 + libmatroska v1.5.0

Video
ID : 1
Format : AVC
Format/Info : Advanced Video Codec
Format profile : High@L4.1
Format settings : CABAC / 12 Ref Frames
Format settings, CABAC : Yes
Format settings, Reference : 12 frames
Codec ID : V_MPEG4/ISO/AVC
Duration : 1 h 44 min
Bit rate : 5 675 kb/s
Width : 1 280 pixels
Height : 544 pixels
Display aspect ratio : 2.35:1
Frame rate mode : Constant
Frame rate : 23.976 FPS
Color space : YUV
Chroma subsampling : 4:2:0
Bit depth : 8 bits
Scan type : Progressive
Bits/(Pixel*Frame) : 0.340
Stream size : 4.13 GiB (82%)
Title : CtrlHD
Writing library : x264 core 152 r2851kMod ba24899
Encoding settings : cabac=1 / ref=12 / deblock=1:-3:-3 / analyse=0x3:0x133 / me=tesa / subme=10 / psy=1 / fade_compensate=0.00 / psy_rd=1.05:0.00 / mixed_ref=1 / me_range=16 / chroma_me=1 / trellis=2 / 8x8dct=1 / cqm=0 / deadzone=21,11 / fast_pskip=0 / chroma_qp_offset=-2 / threads=9 / lookahead_threads=1 / sliced_threads=0 / nr=0 / decimate=0 / interlaced=0 / bluray_compat=0 / constrained_intra=0 / bframes=8 / b_pyramid=2 / b_adapt=2 / b_bias=0 / direct=3 / weightb=1 / open_gop=0 / weightp=2 / keyint=250 / keyint_min=23 / scenecut=40 / intra_refresh=0 / rc_lookahead=60 / rc=crf / mbtree=0 / crf=16.0000 / qcomp=0.80 / qpmin=0 / qpmax=69 / qpstep=4 / vbv_maxrate=15000 / vbv_bufsize=15000 / crf_max=0.0 / nal_hrd=none / filler=0 / ip_ratio=1.30 / pb_ratio=1.20 / aq=3:0.90
Language : English
Default : Yes
Forced : No

Audio #1
ID : 2
Format : AC-3
Format/Info : Audio Coding 3
Commercial name : Dolby Digital
Codec ID : A_AC3
Duration : 1 h 44 min
Bit rate mode : Constant
Bit rate : 640 kb/s
Channel(s) : 6 channels
Channel layout : L R C LFE Ls Rs
Sampling rate : 48.0 kHz
Frame rate : 31.250 FPS (1536 SPF)
Bit depth : 16 bits
Compression mode : Lossy
Stream size : 477 MiB (9%)
Title : Dub [License]
Language : Russian
Service kind : Complete Main
Default : Yes
Forced : Yes

Audio #2
ID : 3
Format : AC-3
Format/Info : Audio Coding 3
Commercial name : Dolby Digital
Codec ID : A_AC3
Duration : 1 h 44 min
Bit rate mode : Constant
Bit rate : 192 kb/s
Channel(s) : 2 channels
Channel layout : L R
Sampling rate : 48.0 kHz
Frame rate : 31.250 FPS (1536 SPF)
Bit depth : 16 bits
Compression mode : Lossy
Stream size : 143 MiB (3%)
Title : MVO [HDRezka Studio]
Language : Russian
Service kind : Complete Main
Default : No
Forced : No

Audio #3
ID : 4
Format : AC-3
Format/Info : Audio Coding 3
Commercial name : Dolby Digital
Codec ID : A_AC3
Duration : 1 h 44 min
Bit rate mode : Constant
Bit rate : 448 kb/s
Channel(s) : 6 channels
Channel layout : L R C LFE Ls Rs
Sampling rate : 48.0 kHz
Frame rate : 31.250 FPS (1536 SPF)
Bit depth : 16 bits
Compression mode : Lossy
Stream size : 334 MiB (6%)
Title : Original
Language : English
Service kind : Complete Main
Default : No
Forced : No

Text #1
ID : 5
Format : UTF-8
Codec ID : S_TEXT/UTF8
Codec ID/Info : UTF-8 Plain Text
Duration : 1 h 32 min
Bit rate : 73 b/s
Count of elements : 1054
Stream size : 49.7 KiB (0%)
Title : Full
Language : Russian
Default : No
Forced : No

Text #2
ID : 6
Format : UTF-8
Codec ID : S_TEXT/UTF8
Codec ID/Info : UTF-8 Plain Text
Duration : 1 h 43 min
Bit rate : 62 b/s
Count of elements : 1792
Stream size : 48.0 KiB (0%)
Title : SDH
Language : English
Default : No
Forced : No

Menu
00:00:00.000 : en:Chapter 1
00:05:13.521 : en:Chapter 2
00:10:26.834 : en:Chapter 3
00:14:52.224 : en:Chapter 4
00:20:33.065 : en:Chapter 5
00:24:38.685 : en:Chapter 6
00:28:40.885 : en:Chapter 7
00:31:10.118 : en:Chapter 8
00:37:35.127 : en:Chapter 9
00:44:38.550 : en:Chapter 10
00:47:53.579 : en:Chapter 11
00:53:11.021 : en:Chapter 12
00:57:36.286 : en:Chapter 13
01:01:25.056 : en:Chapter 14
01:08:55.923 : en:Chapter 15
01:14:17.703 : en:Chapter 16
01:19:31.141 : en:Chapter 17
01:23:23.289 : en:Chapter 18
01:28:24.716 : en:Chapter 19
01:33:53.377 : en:Chapter 20
Источник http://BlaTor.org

Трекер:  [ 11-Июн-2019 00:30 ]

  

Скачать .torrent

Размер .torrent файла 7 KB


Размер: 5.06 GB
Хэш (hash) релиза: 5e69b17abbcb903b4ab92ec42b1f613e2511fda5
Подписка на обновления:

Торренты, похожие на Как приручить дракона 3 How to Train Your Dragon: The Hidden World скачать торрент

Форум Название Автор Размер S L Добавлен
Мультфильмы 2016-2018 (Новинки мультфильмов) ·%· Как приручить дракона 3 / How to Train Your Dragon: The Hidden World (2019) Blu-ray EUR 1080p | Лицензия Galfimbul 4445686742441.4 GB 0 0 1562698850

22:00

9-Июл-19

Мультфильмы 2016-2018 (Новинки мультфильмов) ·%· Как приручить дракона 3 / How to Train Your Dragon: The Hidden World (2019) Blu-Ray EUR 1080p | 3D-Video | Лицензия Galfimbul 4311954227240.16 GB 0 0 1561050674

20:11

20-Июн-19

Мультфильмы 2016-2018 (Новинки мультфильмов) ·%· Как приручить дракона 3 / How to Train Your Dragon: The Hidden World (2019) BDRip 720p от Scarabey | Лицензия Galfimbul 44538701984.15 GB 0 0 1560711623

22:00

16-Июн-19

Мультфильмы 2016-2018 (Новинки мультфильмов) ·%· Как приручить дракона 3 / How to Train Your Dragon: The Hidden World (2019) BDRemux 1080p от селезень | 3D-Video | Лицензия Galfimbul 3739962572834.83 GB 0 0 1560210612

02:50

11-Июн-19

Мультфильмы 2016-2018 (Новинки мультфильмов) ·%· Как приручить дракона 3 / How to Train Your Dragon: The Hidden World (2019) BDRemux 1080p от селезень | D, P | Лицензия Galfimbul 2569462899323.93 GB 0 0 1560207019

01:50

11-Июн-19

Мультфильмы 2016-2018 (Новинки мультфильмов) ·%· Как приручить дракона 3 / How to Train Your Dragon: The Hidden World (2019) UHD Blu-Ray EUR 2160p | 4K | HDR | Лицензия Galfimbul 9496029262188.44 GB 0 0 1560201042

00:10

11-Июн-19

Мультфильмы 2016-2018 (Новинки мультфильмов) ·%· Как приручить дракона 3 / How to Train Your Dragon: The Hidden World (2019) BDRip 1080p от селезень | D, P | Лицензия Galfimbul 89011031838.29 GB 0 0 1560201027

00:10

11-Июн-19

Мультфильмы 2016-2018 (Новинки мультфильмов) ·%· Как приручить дракона 3 / How to Train Your Dragon: The Hidden World (2019) UHD BDRip-HEVC 2160p | 4K | HDR | D | iTunes Galfimbul 1214398763611.31 GB 0 0 1555850413

15:40

21-Апр-19

Мультфильмы 2016-2018 (Новинки мультфильмов) ·%· Как приручить дракона 3 / How to Train Your Dragon: The Hidden World (2019) BDRip-HEVC 1080p от HANNIBAL | iTunes Galfimbul 68225986886.35 GB 0 0 1555842617

13:30

21-Апр-19

Мультфильмы 2016-2018 (Новинки мультфильмов) ·%· Как приручить дракона 3 / How to Train Your Dragon: The Hidden World (2019) HDRip от Generalfilm | КПК | iTunes Galfimbul 414655017395 MB 0 0 1555739411

08:50

20-Апр-19

Мультфильмы 2016-2018 (Новинки мультфильмов) ·%· Как приручить дракона 3 / How to Train Your Dragon: The Hidden World (2019) BDRip-AVC от ExKinoRay | iTunes Galfimbul 777765114742 MB 0 0 1555650613

08:10

19-Апр-19

Мультфильмы 2016-2018 (Новинки мультфильмов) ·%· Как приручить дракона 3 / How to Train Your Dragon: The Hidden World (2019) BDRip-AVC от Dalemake | iTunes Galfimbul 15601635121.45 GB 2 1 1555573221

10:40

18-Апр-19

Мультфильмы 2016-2018 (Новинки мультфильмов) ·%· Как приручить дракона 3 / How to Train Your Dragon: The Hidden World (2019) BDRip 1080p от qqss44 & MegaPeer | iTunes Galfimbul 57610190905.37 GB 0 0 1555546219

03:10

18-Апр-19

Мультфильмы 2016-2018 (Новинки мультфильмов) ·%· Как приручить дракона 3 / How to Train Your Dragon: The Hidden World (2019) BDRemux 1080p от селезень | 3D-Video | iTunes Galfimbul 3715216179234.6 GB 0 0 1555539049

01:10

18-Апр-19

Мультфильмы 2016-2018 (Новинки мультфильмов) ·%· Как приручить дракона 3 / How to Train Your Dragon: The Hidden World (2019) UHD BDRemux 2160p от селезень | 4K | HDR | D, P | iTunes Galfimbul 6225840460557.98 GB 0 0 1555539015

01:10

18-Апр-19

Мультфильмы 2016-2018 (Новинки мультфильмов) ·%· Как приручить дракона 3 / How to Train Your Dragon: The Hidden World (2019) BDRemux 1080p от селезень | D, P | iTunes Galfimbul 2549459302223.74 GB 0 0 1555537835

00:50

18-Апр-19

Мультфильмы 2016-2018 (Новинки мультфильмов) ·%· Как приручить дракона 3 / How to Train Your Dragon: The Hidden World (2019) BDRip 720p от селезень | D, P | iTunes Galfimbul 52320976734.87 GB 0 0 1555537812

00:50

18-Апр-19

Мультфильмы 2016-2018 (Новинки мультфильмов) ·%· Как приручить дракона 3 / How to Train Your Dragon: The Hidden World (2019) BDRip 1080p от селезень | D, P | iTunes Galfimbul 87010621468.1 GB 0 0 1555536623

00:30

18-Апр-19

Мультфильмы 2016-2018 (Новинки мультфильмов) ·%· Как приручить дракона 3 / How to Train Your Dragon: The Hidden World (2019) BDRip 1080p от Ash61 | 3D-Video | halfOU | Line Galfimbul 93891074908.74 GB 0 0 1555181412

21:50

13-Апр-19

Еще никто не оставлял запись к записи скачать торрент Как приручить дракона 3 How to Train Your Dragon: The Hidden World . Будь первым!

!Обратная связь