Скачать через торрент Дитя робота I Am Mother Фильм бесплатно в хорошем качестве torrent

Скачивайте на UnionPeer.org фильмы через торрент без регистрации. Новинки кино в хорошем качестве через торрент. На UnionPeer.org можно скачать через торрент фильмы 2014 и 2015 годов. Самые новые фильмы.

Скачать торрент Дитя робота I Am Mother бесплатно через .torrent фильм мультфильм сериал

Статистика раздачи
Размер:  3.93 GB   |    Зарегистрирован:  3 месяца 8 дней   |    .torrent скачан:  175 раз   |   
Раздают:  1  
   
загрузка...
 
Автор Сообщение

Galfimbul

avatar Galfimbul


Дитя робота /I Am Mother

Год выхода: 2019
Жанр: Фантастика, триллер

Режиссер: Грант Спьютор

В ролях: Люк Хокер, Мэдди Лентон, Саммер Лентон, Хэйзел Сэндери, Тейлия Стурзэйкер, Клара Ругор, Хилари Суэнк, Джейкоб Нолан, Роуз Бирн

О фильме: После глобального катаклизма человечество вымирает. В подземном бункере автоматически активизируется аварийная программа, и робот-гуманоид «Мать» выращивает из эмбриона человеческого ребенка. Девушка, воспитанная под бережным присмотром «Матери», никогда не видела ни поверхности Земли, ни других людей. Но однажды её мир переворачивается, когда на пороге убежища появляется женщина с просьбой о помощи.



Страна: Австралия
Продолжительность: 01:53:33
Перевод: Профессиональный многоголосый | СВ Студия

Файл
Кодек: H.265
Качество: WEB-DL-HEVC 1080p
Видео: HEVC, 1920x800 (2.40:1), 24.000 fps, 3 675 kb/s
Аудио 1: AC-3, 48.0 kHz, 6 ch, 640 kb/s | RUS
Аудио 2: AC-3, 48.0 kHz, 6 ch, 640 kb/s | ENG
Субтитры: Русские, английские

Сэмпл
General
Unique ID : 189570158218667133368690729047653503465 (0x8E9DE269D82373F9B344FD1D954E51E9)
Complete name : I.Am.Mother.2019.WEB-DL.1080p.HEVC.mkv
Format : Matroska
Format version : Version 4
File size : 3.93 GiB
Duration : 1 h 53 min
Overall bit rate : 4 957 kb/s
Encoded date : UTC 2019-06-11 17:43:30
Writing application : mkvmerge v8.3.0 ('Over the Horizon') 64bit
Writing library : libebml v1.3.1 + libmatroska v1.4.2

Video
ID : 1
Format : HEVC
Format/Info : High Efficiency Video Coding
Format profile : Main@L4@Main
Codec ID : V_MPEGH/ISO/HEVC
Duration : 1 h 53 min
Bit rate : 3 675 kb/s
Width : 1 920 pixels
Height : 800 pixels
Display aspect ratio : 2.40:1
Frame rate mode : Constant
Frame rate : 24.000 FPS
Color space : YUV
Chroma subsampling : 4:2:0
Bit depth : 8 bits
Bits/(Pixel*Frame) : 0.100
Stream size : 2.91 GiB (74%)
Default : No
Forced : No
Color range : Limited
Color primaries : BT.709
Transfer characteristics : BT.709
Matrix coefficients : BT.709

Audio #1
ID : 2
Format : AC-3
Format/Info : Audio Coding 3
Commercial name : Dolby Digital
Codec ID : A_AC3
Duration : 1 h 53 min
Bit rate mode : Constant
Bit rate : 640 kb/s
Channel(s) : 6 channels
Channel layout : L R C LFE Ls Rs
Sampling rate : 48.0 kHz
Frame rate : 31.250 FPS (1536 SPF)
Bit depth : 16 bits
Compression mode : Lossy
Delay relative to video : -5 ms
Stream size : 520 MiB (13%)
Title : СВ Студия
Language : Russian
Default : Yes
Forced : No

Audio #2
ID : 3
Format : E-AC-3
Format/Info : Enhanced AC-3
Commercial name : Dolby Digital Plus
Codec ID : A_EAC3
Duration : 1 h 53 min
Bit rate mode : Constant
Bit rate : 640 kb/s
Channel(s) : 6 channels
Channel layout : L R C LFE Ls Rs
Sampling rate : 48.0 kHz
Frame rate : 31.250 FPS (1536 SPF)
Compression mode : Lossy
Delay relative to video : -5 ms
Stream size : 520 MiB (13%)
Language : English
Default : No
Forced : No

Text #1
ID : 4
Format : UTF-8
Codec ID : S_TEXT/UTF8
Codec ID/Info : UTF-8 Plain Text
Duration : 1 h 45 min
Bit rate : 51 b/s
Count of elements : 905
Stream size : 39.5 KiB (0%)
Title : Full
Language : Russian
Default : No
Forced : No

Text #2
ID : 5
Format : UTF-8
Codec ID : S_TEXT/UTF8
Codec ID/Info : UTF-8 Plain Text
Duration : 1 h 42 min
Bit rate : 36 b/s
Count of elements : 912
Stream size : 27.7 KiB (0%)
Title : Full
Language : English
Default : No
Forced : No

Text #3
ID : 6
Format : UTF-8
Codec ID : S_TEXT/UTF8
Codec ID/Info : UTF-8 Plain Text
Duration : 1 h 45 min
Bit rate : 42 b/s
Count of elements : 1156
Stream size : 32.7 KiB (0%)
Title : SDH
Language : English
Default : No
Forced : No
Источник http://BlaTor.org

Трекер:  [ 11-Июн-2019 22:20 ]

  

Скачать .torrent

Размер .torrent файла 20 KB


Размер: 3.93 GB
Хэш (hash) релиза: 1c0527846c75377cfb3c80f431868bedbc3d27f1
Подписка на обновления:

Торренты, похожие на Дитя робота I Am Mother скачать торрент

Форум Название Автор Размер S L Добавлен
Зарубежные фильмы 2016-2018 (Новинки зарубежного кино) ·%· Дитя робота / I Am Mother (2019) WEB-DLRip-AVC от OlLanDGroup | P Galfimbul 24441915042.28 GB 0 0 1560652215

05:30

16-Июн-19

Зарубежные фильмы 2016-2018 (Новинки зарубежного кино) ·%· Дитя робота / I Am Mother (2019) WEB-DLRip от Portablius | СВ Студия Galfimbul 782512128746 MB 0 0 1560531633

20:00

14-Июн-19

Зарубежные фильмы 2016-2018 (Новинки зарубежного кино) ·%· Дитя робота / I Am Mother (2019) WEB-DLRip | КПК | P Galfimbul 449088210428 MB 0 0 1560319236

09:00

12-Июн-19

Зарубежные фильмы 2016-2018 (Новинки зарубежного кино) ·%· Дитя робота / I Am Mother (2019) WEB-DLRip-AVC | СВ Студия Galfimbul 780295846744 MB 0 0 1560285612

23:40

11-Июн-19

Зарубежные фильмы 2016-2018 (Новинки зарубежного кино) ·%· Дитя робота / I Am Mother (2019) WEBRip 720p | CВ Студия Galfimbul 36273611013.38 GB 0 0 1560272445

20:00

11-Июн-19

Зарубежные фильмы 2016-2018 (Новинки зарубежного кино) ·%· Дитя робота / I Am Mother (2019) WEB-DL 1080p | СВ Студия Galfimbul 59896094715.58 GB 0 0 1560269431

19:10

11-Июн-19

Зарубежные фильмы 2016-2018 (Новинки зарубежного кино) ·%· Дитя робота / I Am Mother (2019) WEB-DL 1080p | СВ Студия Galfimbul 59901784495.58 GB 0 0 1560243016

11:50

11-Июн-19

Зарубежные фильмы 2016-2018 (Новинки зарубежного кино) ·%· Дитя робота / Я-Мать / I Am Mother (2019) WEBRip 720p от k.e.n & MegaPeer | CВ Студия Galfimbul 26270533792.45 GB 0 0 1560499809

11:10

14-Июн-19

Зарубежные фильмы 2016-2018 (Новинки зарубежного кино) ·%· Дитя робота / Я-Мать / I Am Mother (2019) WEB-DLRip от Scarabey | СВ Студия Galfimbul 15524515841.45 GB 0 0 1560448841

21:00

13-Июн-19

Еще никто не оставлял запись к записи скачать торрент Дитя робота I Am Mother . Будь первым!

!Обратная связь