Скачать через торрент Будь готов Czuwaj Фильм бесплатно в хорошем качестве torrent

Скачивайте на UnionPeer.org фильмы через торрент без регистрации. Новинки кино в хорошем качестве через торрент. На UnionPeer.org можно скачать через торрент фильмы 2014 и 2015 годов. Самые новые фильмы.

Скачать торрент Будь готов Czuwaj бесплатно через .torrent фильм мультфильм сериал

Статистика раздачи
Размер:  1.9 GB   |    Зарегистрирован:  3 месяца 5 дней   |    .torrent скачан:  47 раз   |   
Раздают:  1  
   
загрузка...
 
Автор Сообщение

Galfimbul

avatar Galfimbul


Будь готов /Czuwaj

Год выхода: 2017
Жанр: триллер, психологический
Режиссер: Роберт Глиньский
В ролях: Матеуш Венцлавек, Якуб Заенц, Магдалена Вечорек, Михал Влодарчик, Лешек Лихота, Збигнев Замаховский

О фильме:
В лагерь скаутов приезжает и группа молодежи из исправительного лагеря. Так решили взрослые. Но две группы молодых людей из разных миров, представляющие две разные системы ценностей, сталкиваются друг с другом. То, что должно было стать уроком ответственности и терпимости, превратилось в тяжелую борьбу за лидерство. С одной стороны, вера в благородные идеалы, а с другой - закон силы. Отношения между молодыми людьми становятся напряженными; изоляция от внешнего мира раскрывает их истинную, шокирующую сущность.



В оригинальной аудиодорожке присутствует хорошо различимая ненормативная лексика.

Страна: Польша
Студия: WFDiF, Monolith Films, Polski Instytut Sztuki Filmowej
Продолжительность: 01:25:25
Перевод: Субтитры Professor

Файл
Кодек: DivX
Качество: WEBRip
Видео: 720x304, 2.35:1, 25.000 FPS, 2 986 kb/s
Звук: AC-3, 48.0 kHz, 192 kb/s, 2 channels
Субтитры: русские srt
General
Complete name : Czuwaj.2017.WEBRip.XViD.avi
Format : AVI
Format/Info : Audio Video Interleave
File size : 1.90 GiB
Duration : 1 h 25 min
Overall bit rate : 3 189 kb/s

Video
ID : 0
Format : MPEG-4 Visual
Format profile : Advanced Simple@L4
Format settings : BVOP2
Format settings, BVOP : 2
Format settings, QPel : No
Format settings, GMC : No warppoints
Format settings, Matrix : Default (H.263)
Codec ID : DIVX
Codec ID/Info : Project Mayo
Codec ID/Hint : DivX 4
Duration : 1 h 25 min
Bit rate : 2 986 kb/s
Width : 720 pixels
Height : 304 pixels
Display aspect ratio : 2.35:1
Frame rate : 25.000 FPS
Color space : YUV
Chroma subsampling : 4:2:0
Bit depth : 8 bits
Scan type : Progressive
Compression mode : Lossy
Bits/(Pixel*Frame) : 0.546
Stream size : 1.78 GiB (94%)
Writing library : XviD 67

Audio
ID : 1
Format : AC-3
Format/Info : Audio Coding 3
Commercial name : Dolby Digital
Codec ID : 2000
Duration : 1 h 25 min
Bit rate mode : Constant
Bit rate : 192 kb/s
Channel(s) : 2 channels
Channel layout : L R
Sampling rate : 48.0 kHz
Frame rate : 31.250 FPS (1536 SPF)
Bit depth : 16 bits
Compression mode : Lossy
Stream size : 117 MiB (6%)
Alignment : Aligned on interleaves
Interleave, duration : 32 ms (0.80 video frame)
Service kind : Complete Main
Источник http://BlaTor.org

Трекер:  [ 12-Июн-2019 18:50 ]

  

Скачать .torrent

Размер .torrent файла 38 KB


Размер: 1.9 GB
Хэш (hash) релиза: 73805cbc3938b203aba8d08cebbc847e02620344
Подписка на обновления:

Еще никто не оставлял запись к записи скачать торрент Будь готов Czuwaj . Будь первым!

!Обратная связь