Скачать через торрент Отель Мумбаи: Противостояние Hotel Mumbai Фильм бесплатно в хорошем качестве torrent

Скачивайте на UnionPeer.org фильмы через торрент без регистрации. Новинки кино в хорошем качестве через торрент. На UnionPeer.org можно скачать через торрент фильмы 2014 и 2015 годов. Самые новые фильмы.

Скачать торрент Отель Мумбаи: Противостояние Hotel Mumbai бесплатно через .torrent фильм мультфильм сериал

Статистика раздачи
Размер:  5.97 GB   |    Зарегистрирован:  3 месяца 5 дней   |    .torrent скачан:  68 раз   |   
Раздают:  1  
   
загрузка...
 
Автор Сообщение

Galfimbul

avatar Galfimbul


Отель Мумбаи: Противостояние /Hotel Mumbai

Год выхода: 2018
Жанр: Триллер, драма, история
Режиссер: Энтони Марас
В ролях: Арми Хаммер, Джейсон Айзекс, Назанин Бониади, Дев Патель, Наташа Лю Бордиццо, Амандип Сингх, Сухаил Найар, Манодж Мера, Динеш Кумар, Амриптал Сингх



О фильме:
Индия. Мумбаи. Роскошный отель «Тадж-Махал Палас» — гарантия безопасности. И каждый гость здесь — бог. Но однажды мир красоты, роскоши и комфорта рушится… Три дня противостояния смерти, три дня борьбы за выживание…


Страна: США, Австралия
Студия: A Hamilton and Electric Pictures Production, American Entertainment Investors, Cyan Films
Продолжительность: 02:02:52
Перевод(ы):
#1: Дублированный | iTunes
#2: Профессиональный многоголосый | HDRezka Studio

Качество: BDRip 720p
Видео: MPEG-4 AVC, 1280x538, 5745 Kbit/s, 23.976 fps
Звук:
Аудио #01: 48 kHz, AC3, 5.1, 384 Kbps | iTunes | RUS |
Аудио #02: 48 kHz, AC3, 2.0, 192 Kbps | HDRezka Studio | RUS |
Аудио #03: 48 kHz, AC3, 5.1, 640 Kbps | Оригинал | ENG |
Субтитры: Русские (Forced), английские

General
Unique ID : 79704977297770048383503393970791812674 (0x3BF69EC8AAF697D73937EBDD11BA8E42)
Complete name : D:Video111Hotel.Mumbai.2018.BDRip.720p.seleZen.mkv
Format : Matroska
Format version : Version 4
File size : 5.97 GiB
Duration : 2 h 2 min
Overall bit rate : 6 951 kb/s
Movie name : Hotel Mumbai 2018 from селезень
Encoded date : UTC 2019-06-12 18:49:22
Writing application : mkvmerge v33.1.0 ('Primrose') 64-bit
Writing library : libebml v1.3.7 + libmatroska v1.5.0

Video
ID : 1
Format : AVC
Format/Info : Advanced Video Codec
Format profile : High@L4.1
Format settings : CABAC / 12 Ref Frames
Format settings, CABAC : Yes
Format settings, Reference : 12 frames
Codec ID : V_MPEG4/ISO/AVC
Duration : 2 h 2 min
Bit rate : 5 745 kb/s
Width : 1 280 pixels
Height : 538 pixels
Display aspect ratio : 2.40:1
Frame rate mode : Constant
Frame rate : 23.976 (24000/1001) FPS
Color space : YUV
Chroma subsampling : 4:2:0
Bit depth : 8 bits
Scan type : Progressive
Bits/(Pixel*Frame) : 0.348
Stream size : 4.92 GiB (82%)
Title : seleZen
Writing library : x264 core 148 r2705kMod 3f5ed56
Encoding settings : cabac=1 / ref=12 / deblock=1:-2:-2 / analyse=0x3:0x133 / me=umh / subme=10 / psy=1 / fade_compensate=0.00 / psy_rd=1.20:0.05 / mixed_ref=1 / me_range=32 / chroma_me=1 / trellis=2 / 8x8dct=1 / cqm=0 / deadzone=21,11 / fast_pskip=0 / chroma_qp_offset=-3 / threads=12 / lookahead_threads=2 / sliced_threads=0 / nr=0 / decimate=0 / interlaced=0 / bluray_compat=0 / constrained_intra=0 / fgo=0 / bframes=8 / b_pyramid=2 / b_adapt=2 / b_bias=0 / direct=3 / weightb=1 / open_gop=0 / weightp=2 / keyint=240 / keyint_min=23 / scenecut=40 / intra_refresh=0 / rc_lookahead=50 / rc=2pass / mbtree=0 / bitrate=5745 / ratetol=1.0 / qcomp=0.60 / qpmin=0 / qpmax=51 / qpstep=4 / cplxblur=20.0 / qblur=0.5 / vbv_maxrate=50000 / vbv_bufsize=62500 / nal_hrd=none / filler=0 / ip_ratio=1.40 / pb_ratio=1.30 / aq=3:0.80
Language : English
Default : Yes
Forced : No

Audio #1
ID : 2
Format : AC-3
Format/Info : Audio Coding 3
Commercial name : Dolby Digital
Codec ID : A_AC3
Duration : 2 h 2 min
Bit rate mode : Constant
Bit rate : 384 kb/s
Channel(s) : 6 channels
Channel layout : L R C LFE Ls Rs
Sampling rate : 48.0 kHz
Frame rate : 31.250 FPS (1536 SPF)
Bit depth : 16 bits
Compression mode : Lossy
Stream size : 338 MiB (6%)
Title : iTunes
Language : Russian
Service kind : Complete Main
Default : Yes
Forced : Yes

Audio #2
ID : 3
Format : AC-3
Format/Info : Audio Coding 3
Commercial name : Dolby Digital
Codec ID : A_AC3
Duration : 2 h 2 min
Bit rate mode : Constant
Bit rate : 192 kb/s
Channel(s) : 2 channels
Channel layout : L R
Sampling rate : 48.0 kHz
Frame rate : 31.250 FPS (1536 SPF)
Bit depth : 16 bits
Compression mode : Lossy
Stream size : 169 MiB (3%)
Title : MVO [HDRezka Studio]
Language : Russian
Service kind : Complete Main
Default : No
Forced : Yes

Audio #3
ID : 4
Format : AC-3
Format/Info : Audio Coding 3
Commercial name : Dolby Digital
Codec ID : A_AC3
Duration : 2 h 2 min
Bit rate mode : Constant
Bit rate : 640 kb/s
Channel(s) : 6 channels
Channel layout : L R C LFE Ls Rs
Sampling rate : 48.0 kHz
Frame rate : 31.250 FPS (1536 SPF)
Bit depth : 16 bits
Compression mode : Lossy
Stream size : 563 MiB (9%)
Title : Original
Language : English
Service kind : Complete Main
Default : No
Forced : No

Text #1
ID : 5
Format : UTF-8
Codec ID : S_TEXT/UTF8
Codec ID/Info : UTF-8 Plain Text
Duration : 1 h 52 min
Bit rate : 3 b/s
Count of elements : 39
Stream size : 2.66 KiB (0%)
Title : Forced
Language : Russian
Default : Yes
Forced : Yes

Text #2
ID : 6
Format : UTF-8
Codec ID : S_TEXT/UTF8
Codec ID/Info : UTF-8 Plain Text
Duration : 1 h 52 min
Bit rate : 33 b/s
Count of elements : 915
Stream size : 28.0 KiB (0%)
Title : Full
Language : English
Default : No
Forced : No

Menu
00:00:00.000 : en:Chapter 1
00:06:37.938 : en:Chapter 2
00:15:50.866 : en:Chapter 3
00:24:23.378 : en:Chapter 4
00:36:02.826 : en:Chapter 5
00:48:46.965 : en:Chapter 6
01:00:38.217 : en:Chapter 7
01:15:28.356 : en:Chapter 8
01:27:47.094 : en:Chapter 9
01:37:14.494 : en:Chapter 10
01:46:32.468 : en:Chapter 11
01:55:33.259 : en:Chapter 12
Источник http://BlaTor.org

Трекер:  [ 12-Июн-2019 22:30 ]

  

Скачать .torrent

Размер .torrent файла 8 KB


Размер: 5.97 GB
Хэш (hash) релиза: e2131c0e683a864f967de0bd093c53280d594d35
Подписка на обновления:

Торренты, похожие на Отель Мумбаи: Противостояние Hotel Mumbai скачать торрент

Форум Название Автор Размер S L Добавлен
Зарубежные фильмы 2016-2018 (Новинки зарубежного кино) ·%· Отель Мумбаи: Противостояние / Hotel Mumbai (2018) BDRip 1080p от Талямбы | 60 fps | iTunes Galfimbul 2253552511320.99 GB 0 0 1563549050

18:10

19-Июл-19

Зарубежные фильмы 2016-2018 (Новинки зарубежного кино) ·%· Отель Мумбаи: Противостояние / Hotel Mumbai (2018) BDRip 720p от Scarabey | iTunes Galfimbul 61093632385.69 GB 2 0 1561915815

20:30

30-Июн-19

Зарубежные фильмы 2016-2018 (Новинки зарубежного кино) ·%· Отель Мумбаи: Противостояние / Hotel Mumbai (2018) BDRip от Twister & ExKinoRay | CAN Transfer | iTunes Galfimbul 15752685401.47 GB 0 0 1561578621

22:50

26-Июн-19

Зарубежные фильмы 2016-2018 (Новинки зарубежного кино) ·%· Отель Мумбаи: Противостояние / Hotel Mumbai (2018) BDRip от Twister & ExKinoRay | CAN Transfer | iTunes Galfimbul 22853325482.13 GB 0 0 1561578609

22:50

26-Июн-19

Зарубежные фильмы 2016-2018 (Новинки зарубежного кино) ·%· Отель Мумбаи: Противостояние / Hotel Mumbai (2018) BDRip от MegaPeer | iTunes Galfimbul 22843392002.13 GB 0 0 1561203050

14:30

22-Июн-19

Зарубежные фильмы 2016-2018 (Новинки зарубежного кино) ·%· Отель Мумбаи: Противостояние / Hotel Mumbai (2018) BDRip-HEVC 1080p от HANNIBAL | iTunes Galfimbul 95742862068.92 GB 0 0 1561142429

21:40

21-Июн-19

Зарубежные фильмы 2016-2018 (Новинки зарубежного кино) ·%· Отель Мумбаи: Противостояние / Hotel Mumbai (2018) BDRip от Twister & ExKinoRay | iTunes Galfimbul 15685122581.46 GB 0 0 1560637818

01:30

16-Июн-19

Зарубежные фильмы 2016-2018 (Новинки зарубежного кино) ·%· Отель Мумбаи: Противостояние / Hotel Mumbai (2018) BDRip от Twister & ExKinoRay | iTunes Galfimbul 22840680562.13 GB 0 0 1560637808

01:30

16-Июн-19

Зарубежные фильмы 2016-2018 (Новинки зарубежного кино) ·%· Отель Мумбаи: Противостояние / Hotel Mumbai (2018) BDRip 720p от k.e.n & MegaPeer | D, P | iTunes Galfimbul 57413537625.35 GB 0 0 1560498031

10:40

14-Июн-19

Зарубежные фильмы 2016-2018 (Новинки зарубежного кино) ·%· Отель Мумбаи: Противостояние / Hotel Mumbai (2018) HDRip от Generalfilm | КПК | iTunes Galfimbul 488887676466 MB 0 0 1560456026

23:00

13-Июн-19

Зарубежные фильмы 2016-2018 (Новинки зарубежного кино) ·%· Отель Мумбаи: Противостояние / Hotel Mumbai (2018) HDRip от Scarabey | iTunes Galfimbul 15523983361.45 GB 0 0 1560447615

20:40

13-Июн-19

Зарубежные фильмы 2016-2018 (Новинки зарубежного кино) ·%· Отель Мумбаи: Противостояние / Hotel Mumbai (2018) BDRip-AVC от ExKinoRay | iTunes Galfimbul 779519792743 MB 0 0 1560400810

07:40

13-Июн-19

Зарубежные фильмы 2016-2018 (Новинки зарубежного кино) ·%· Отель Мумбаи: Противостояние / Hotel Mumbai (2018) BDRip-AVC от OlLanDGroup | D, P | iTunes Galfimbul 21769096232.03 GB 2 0 1560393020

05:30

13-Июн-19

Зарубежные фильмы 2016-2018 (Новинки зарубежного кино) ·%· Отель Мумбаи: Противостояние / Hotel Mumbai (2018) HDRip от Scarabey | iTunes Galfimbul 779589632743 MB 0 0 1560359445

20:10

12-Июн-19

Зарубежные фильмы 2016-2018 (Новинки зарубежного кино) ·%· Отель Мумбаи: Противостояние / Hotel Mumbai (2018) BDRip 1080p от селезень | D, P | iTunes Galfimbul 1248877143811.63 GB 0 0 1560321622

09:40

12-Июн-19

Зарубежные фильмы 2016-2018 (Новинки зарубежного кино) ·%· Отель Мумбаи: Противостояние / Hotel Mumbai (2018) BDRemux 1080p от селезень | D, P | iTunes Galfimbul 3668643999034.17 GB 0 0 1560321611

09:40

12-Июн-19

Зарубежные фильмы 2016-2018 (Новинки зарубежного кино) ·%· Отель Мумбаи: Противостояние / Hotel Mumbai (2018) BDRip 1080p от селезень | HDRezka Studio Galfimbul 1213461151811.3 GB 0 0 1560270034

19:20

11-Июн-19

Зарубежные фильмы 2016-2018 (Новинки зарубежного кино) ·%· Отель Мумбаи: Противостояние / Hotel Mumbai (2018) BDRemux 1080p от селезень | HDRezka Studio Galfimbul 3633223747533.84 GB 0 0 1560266423

18:20

11-Июн-19

Зарубежные фильмы 2016-2018 (Новинки зарубежного кино) ·%· Отель Мумбаи: Противостояние / Hotel Mumbai (2018) HDRip от MegaPeer | HDRezka Studio Galfimbul 15678678431.46 GB 0 0 1560195044

22:30

10-Июн-19

Еще никто не оставлял запись к записи скачать торрент Отель Мумбаи: Противостояние Hotel Mumbai . Будь первым!

!Обратная связь