Скачать через торрент Видок: Охотник на призраков Видок: Император Парижа Фильм бесплатно в хорошем качестве torrent

Скачивайте на UnionPeer.org фильмы через торрент без регистрации. Новинки кино в хорошем качестве через торрент. На UnionPeer.org можно скачать через торрент фильмы 2014 и 2015 годов. Самые новые фильмы.

Скачать торрент Видок: Охотник на призраков Видок: Император Парижа бесплатно через .torrent фильм мультфильм сериал

Статистика раздачи
Размер:  1.46 GB   |    Зарегистрирован:  1 месяц 9 дней   |    .torrent скачан:  261 раз   |   
Раздают:  4  
   
загрузка...
 
Автор Сообщение

Galfimbul

avatar Galfimbul


Видок: Охотник на призраков / Видок: Император Парижа / L'Empereur de Paris

Страна: Франция
Производство: Canal+ [fr], CN6 Productions, Actes Proletariens, Gaumont, Mandarin Films, Scope Pictures
Год выпуска: 2018
Жанр: приключения, история
Продолжительность: 02:00:05

Режиссер: Жан-Франсуа Рише
В ролях: Ольга Куриленко, Венсан Кассель, Фрейя Мавор, Аугуст Диль, Дени Меноше, Дени Лаван, Фабрис Лукини, Джеймс Тьерре, Патрик Шене

Описание: Реальная история легендарного французского сыщика XIX века Эжена Франсуа Видока. Ловкий преступник и мастер по части побегов из тюрем Видок менял города и профессии, пока не был нанят наполеоновским правительством очистить улицы Парижа от криминала. Зная преступный мир изнутри, Видок стал самым успешным детективом своей эпохи и настоящим Императором Парижа...



Перевод: Профессиональный (многоголосый, закадровый) | HDRezka Studio
Субтитры: нет
Качество: HDRip
Формат: AVI
Видео кодек: XviD
Аудио кодек: АС3
Видео: 704x288 (2.40:1), 23.976 fps, XviD build 73 ~1 536 kbps avg
Аудио: 48.0 kHz, AC3 Dolby Digital, 2/0 (L,R) ch, ~192 kbps

Дата премьеры (мир): 3 ноября 2018
Дата премьеры (РФ): 25 июля 2019, «Экспонента»



<span style="color:Green;">
General
Формат : AVI
Формат/Информация : Audio Video Interleave
Размер файла : 1,46 Гбайт
Продолжительность : 2 ч. 0 м.
Общий поток : 1737 Кбит/сек
Название фильма : Видок - Охотник на призраков_2018_HDRip
Программа кодирования : VirtualDubMod 1.5.10.3 | (build 2550/release)
Авторское право : порошков

Видео
Идентификатор : 0
Формат : MPEG-4 Visual
Профиль формата : Advanced Simple@L5
Настройки формата : BVOP1 / Custom Matrix
Параметр BVOP формата : 1
Параметр QPel формата : Нет
Параметр GMC формата : Без точки перехода
Параметр матрицы формата : Выборочная
Идентификатор кодека : XVID
Идентификатор кодека/Подсказка : XviD
Продолжительность : 2 ч. 0 м.
Битрейт : 1536 Кбит/сек
Ширина : 704 пикселя
Высота : 288 пикселей
Соотношение сторон : 2,40:1
Частота кадров : 23,976 (24000/1001) кадра/сек
Цветовое пространство : YUV
Субдискретизация насыщенности : 4:2:0
Битовая глубина : 8 бит
Тип развёртки : Прогрессивная
Метод сжатия : С потерями
Бит/(Пиксели*Кадры) : 0.316
Размер потока : 1,29 Гбайт (88%)
Библиотека кодирования : XviD 73

Аудио
Идентификатор : 1
Формат : AC-3
Формат/Информация : Audio Coding 3
Коммерческое название : Dolby Digital
Идентификатор кодека : 2000
Продолжительность : 2 ч. 0 м.
Вид битрейта : Постоянный
Битрейт : 192 Кбит/сек
Каналы : 2 канала
ChannelLayout : L R
Частота : 48,0 КГц
Частота кадров : 31,250 кадров/сек (1536 SPF)
Битовая глубина : 16 бит
Метод сжатия : С потерями
Размер потока : 165 Мбайт (11%)
Выравнивание : Разделение по промежуткам
Продолжительность промежутка : 42 мс. (1,00 видеокадр)
Время предзагрузки промежутка : 500 мс.
Источник http://BlaTor.org

Трекер:  [ 14-Июн-2019 09:00 ]

  

Скачать .torrent

Размер .torrent файла 15 KB


Размер: 1.46 GB
Хэш (hash) релиза: 9bab1aae314d97137013b945d35a2f48b78c95ed
Подписка на обновления:

Торренты, похожие на Видок: Охотник на призраков Видок: Император Парижа скачать торрент

Форум Название Автор Размер S L Добавлен
Зарубежные фильмы 2016-2018 (Новинки зарубежного кино) ·%· Видок: Охотник на призраков / Видок: Император Парижа / L'Empereur de Paris (2018) BDRip-HEVC 1080p | HDRezka Studio Galfimbul 66722210456.21 GB 0 0 1560867014

17:10

18-Июн-19

Зарубежные фильмы 2016-2018 (Новинки зарубежного кино) ·%· Видок: Охотник на призраков / Видок: Император Парижа / L'Empereur de Paris (2018) HDRip от Portablius | HDrezka Studio Galfimbul 783562752747 MB 2 0 1560673816

11:30

16-Июн-19

Зарубежные фильмы 2016-2018 (Новинки зарубежного кино) ·%· Видок: Охотник на призраков / Видок: Император Парижа / L'Empereur de Paris (2018) HDRip-AVC | HDRezka Studio Galfimbul 782844931747 MB 0 0 1560600013

15:00

15-Июн-19

Зарубежные фильмы 2016-2018 (Новинки зарубежного кино) ·%· Видок: Охотник на призраков / Видок: Император Парижа / L'Empereur de Paris (2018) BDRemux 1080p | HDRezka Studio Galfimbul 3440406675432.04 GB 0 0 1560537679

21:41

14-Июн-19

Зарубежные фильмы 2016-2018 (Новинки зарубежного кино) ·%· Видок: Охотник на призраков / Видок: Император Парижа / L'Empereur de Paris (2018) BDRip 1080p | HDRezka Studio Galfimbul 97319538749.06 GB 0 0 1560466818

02:00

14-Июн-19

Зарубежные фильмы 2016-2018 (Новинки зарубежного кино) ·%· Видок: Охотник на призраков / Видок: Император Парижа / L'Empereur de Paris (2018) BDRip-AVC от OlLanDGroup | P Galfimbul 17848226831.66 GB 0 0 1560444033

19:40

13-Июн-19

Зарубежные фильмы 2016-2018 (Новинки зарубежного кино) ·%· Видок: Охотник на призраков / Видок: Император Парижа / L'Empereur de Paris (2018) BDRip 720p от ExKinoRay | HDrezka Studio Galfimbul 51357309594.78 GB 2 0 1560430829

16:00

13-Июн-19

Еще никто не оставлял запись к записи скачать торрент Видок: Охотник на призраков Видок: Император Парижа . Будь первым!

!Обратная связь