Скачать через торрент Волшебный парк Джун Wonder Park Фильм бесплатно в хорошем качестве torrent

Скачивайте на UnionPeer.org фильмы через торрент без регистрации. Новинки кино в хорошем качестве через торрент. На UnionPeer.org можно скачать через торрент фильмы 2014 и 2015 годов. Самые новые фильмы.

Скачать торрент Волшебный парк Джун Wonder Park бесплатно через .torrent фильм мультфильм сериал

Статистика раздачи
Размер:  8.22 GB   |    Зарегистрирован:  1 месяц 4 дня   |    .torrent скачан:  64 раза   |   
Раздают:  1  
   
загрузка...
 
Автор Сообщение

Galfimbul

avatar Galfimbul


Волшебный парк Джун /Wonder Park

Год выхода: 2019
Жанр: Мультфильм, фэнтези, комедия, приключения, семейный, полнометражный
Режиссер: Джош Аппелбаум, Андре Немец, Роберт Гордон
В ролях: София Мали, Дженнифер Гарнер, Кен Хадсон Кэмпбелл, Кенан Томпсон, Мила Кунис, Джон Оливер, Кен Жонг, Норберт Лео Батц, Мэттью Бродерик, Брианна Денски



О фильме: Однажды фантазерка Джун обнаруживает, что придуманный ею чудесный Парк развлечений реален! Но его существование под угрозой, и Джун нужен план спасения ее Мечты. Помогут девочке ее новые друзья — волшебные звери Парка.

Страна: Испания, США
Студия: Ilion Animation Studios, Midnight Radio, Nickelodeon Movies
Продолжительность: 01:25:16
Перевод: Дублированный | iTunes

Качество: BDRip 1080p
Видео: MPEG-4 AVC, 1920x800, 12.8 Mbit/s, 23.976 fps
Звук:
Аудио #01: 48 kHz, AC3, 5.1, 384 Kbps | iTunes | RUS |
Аудио #02: 48 kHz, AC3, 5.1, 640 Kbps | Оригинал | ENG |
Субтитры: Английские

General
Unique ID : 106096152051997843939761047691567313980 (0x4FD16028C572BD9B8F1A116F32AC343C)
Complete name : D:Video111Wonder.Park.2019.BDRip.1080p.seleZen.mkv
Format : Matroska
Format version : Version 4
File size : 8.22 GiB
Duration : 1 h 25 min
Overall bit rate : 13.8 Mb/s
Movie name : Wonder Park 2019 from селезень
Encoded date : UTC 2019-06-19 22:28:17
Writing application : mkvmerge v33.1.0 ('Primrose') 64-bit
Writing library : libebml v1.3.7 + libmatroska v1.5.0

Video
ID : 1
Format : AVC
Format/Info : Advanced Video Codec
Format profile : High@L4.1
Format settings : CABAC / 5 Ref Frames
Format settings, CABAC : Yes
Format settings, Reference : 5 frames
Codec ID : V_MPEG4/ISO/AVC
Duration : 1 h 25 min
Bit rate : 12.8 Mb/s
Width : 1 920 pixels
Height : 800 pixels
Display aspect ratio : 2.40:1
Frame rate mode : Constant
Frame rate : 23.976 (24000/1001) FPS
Color space : YUV
Chroma subsampling : 4:2:0
Bit depth : 8 bits
Scan type : Progressive
Bits/(Pixel*Frame) : 0.347
Stream size : 7.61 GiB (93%)
Title : MTeam
Writing library : x264 core 157 r2938 2b00a84 TnP@MTeam Mod
Encoding settings : cabac=1 / ref=5 / deblock=1:-3:-3 / analyse=0x3:0x133 / me=umh / subme=10 / psy=1 / psy_rd=1.05:0.00 / mixed_ref=1 / me_range=32 / chroma_me=1 / trellis=2 / 8x8dct=1 / cqm=0 / deadzone=21,11 / fast_pskip=0 / chroma_qp_offset=-2 / threads=12 / lookahead_threads=2 / sliced_threads=0 / nr=0 / decimate=0 / interlaced=0 / bluray_compat=0 / constrained_intra=0 / bframes=8 / b_pyramid=2 / b_adapt=2 / b_bias=0 / direct=3 / weightb=1 / open_gop=0 / weightp=2 / keyint=250 / keyint_min=24 / scenecut=40 / intra_refresh=0 / rc_lookahead=250 / rc=crf / mbtree=0 / crf=16.1 / qcomp=0.60 / qpmin=0 / qpmax=69 / qpstep=4 / vbv_maxrate=62500 / vbv_bufsize=78125 / crf_max=0.0 / nal_hrd=none / filler=0 / ip_ratio=1.30 / pb_ratio=1.20 / aq=3:0.80
Language : English
Default : Yes
Forced : No
Color range : Limited
Color primaries : BT.709
Matrix coefficients : BT.709

Audio #1
ID : 2
Format : AC-3
Format/Info : Audio Coding 3
Commercial name : Dolby Digital
Codec ID : A_AC3
Duration : 1 h 25 min
Bit rate mode : Constant
Bit rate : 384 kb/s
Channel(s) : 6 channels
Channel layout : L R C LFE Ls Rs
Sampling rate : 48.0 kHz
Frame rate : 31.250 FPS (1536 SPF)
Bit depth : 16 bits
Compression mode : Lossy
Stream size : 234 MiB (3%)
Title : iTunes
Language : Russian
Service kind : Complete Main
Default : Yes
Forced : Yes

Audio #2
ID : 3
Format : AC-3
Format/Info : Audio Coding 3
Commercial name : Dolby Digital
Codec ID : A_AC3
Duration : 1 h 25 min
Bit rate mode : Constant
Bit rate : 640 kb/s
Channel(s) : 6 channels
Channel layout : L R C LFE Ls Rs
Sampling rate : 48.0 kHz
Frame rate : 31.250 FPS (1536 SPF)
Bit depth : 16 bits
Compression mode : Lossy
Stream size : 390 MiB (5%)
Title : Original
Language : English
Service kind : Complete Main
Default : No
Forced : No

Text
ID : 4
Format : UTF-8
Codec ID : S_TEXT/UTF8
Codec ID/Info : UTF-8 Plain Text
Duration : 1 h 17 min
Bit rate : 64 b/s
Count of elements : 1105
Stream size : 36.6 KiB (0%)
Title : Full
Language : English
Default : No
Forced : No

Menu
00:00:00.000 : en:Chapter 01
00:06:34.811 : en:Chapter 02
00:12:05.475 : en:Chapter 03
00:20:22.847 : en:Chapter 04
00:25:49.590 : en:Chapter 05
00:33:03.648 : en:Chapter 06
00:39:14.185 : en:Chapter 07
00:47:39.648 : en:Chapter 08
00:54:39.443 : en:Chapter 09
01:00:32.462 : en:Chapter 10
01:06:17.807 : en:Chapter 11
01:13:12.054 : en:Chapter 12
01:17:49.748 : en:Chapter 13
Источник http://BlaTor.org

Трекер:  [ 20-Июн-2019 01:40 ]

  

Скачать .torrent

Размер .torrent файла 10 KB


Размер: 8.22 GB
Хэш (hash) релиза: 2c64ce9a544559cea974f99ab20849bcd895fd90
Подписка на обновления:

Торренты, похожие на Волшебный парк Джун Wonder Park скачать торрент

Форум Название Автор Размер S L Добавлен
Мультфильмы 2016-2018 (Новинки мультфильмов) ·%· Волшебный парк Джун / Wonder Park (2019) BDRip 1080p от Талямбы | 60 fps | iTunes Galfimbul 1780351384016.58 GB 0 0 1563922382

01:53

24-Июл-19

Мультфильмы 2016-2018 (Новинки мультфильмов) ·%· Волшебный парк Джун / Wonder Park (2019) BDRip 1080p от HELLYWOOD | iTunes Galfimbul 71241958456.63 GB 2 0 1562673759

15:02

9-Июл-19

Мультфильмы 2016-2018 (Новинки мультфильмов) ·%· Волшебный парк Джун / Wonder Park (2019) BDRip-HEVC 720p | iTunes Galfimbul 20366056631.9 GB 0 0 1561557627

17:00

26-Июн-19

Мультфильмы 2016-2018 (Новинки мультфильмов) ·%· Волшебный парк Джун / Wonder Park (2019) BDRip-AVC от OlLanDGroup | iTunes Galfimbul 14127725811.32 GB 0 0 1561302619

18:10

23-Июн-19

Мультфильмы 2016-2018 (Новинки мультфильмов) ·%· Волшебный парк Джун / Wonder Park (2019) HDRip от Portablius | iTunes Galfimbul 825575703787 MB 2 0 1561281032

12:10

23-Июн-19

Мультфильмы 2016-2018 (Новинки мультфильмов) ·%· Волшебный парк Джун / Wonder Park (2019) BDRip от Twister & ExKinoRay | iTunes Galfimbul 15277160681.42 GB 2 0 1561273824

10:10

23-Июн-19

Мультфильмы 2016-2018 (Новинки мультфильмов) ·%· Волшебный парк Джун / Wonder Park (2019) BDRip-HEVC 1080p | iTunes Galfimbul 51725985104.82 GB 2 0 1561161051

02:50

22-Июн-19

Мультфильмы 2016-2018 (Новинки мультфильмов) ·%· Волшебный парк Джун / Wonder Park (2019) BDRip-AVC от ExKinoRay | iTunes Galfimbul 24518919972.28 GB 0 0 1561020647

11:50

20-Июн-19

Мультфильмы 2016-2018 (Новинки мультфильмов) ·%· Волшебный парк Джун / Wonder Park (2019) BDRip от MegaPeer | iTunes Galfimbul 15287316481.42 GB 0 0 1561014059

10:00

20-Июн-19

Мультфильмы 2016-2018 (Новинки мультфильмов) ·%· Волшебный парк Джун / Wonder Park (2019) BDRemux 1080p от селезень | iTunes Galfimbul 2084996891819.42 GB 0 0 1560996024

05:00

20-Июн-19

Мультфильмы 2016-2018 (Новинки мультфильмов) ·%· Волшебный парк Джун / Wonder Park (2019) BDRip 720p от селезень | iTunes Galfimbul 37508542393.49 GB 2 0 1560985214

02:00

20-Июн-19

Еще никто не оставлял запись к записи скачать торрент Волшебный парк Джун Wonder Park . Будь первым!

!Обратная связь