Скачать через торрент Волшебный парк Джун Wonder Park Фильм бесплатно в хорошем качестве torrent

Скачивайте на UnionPeer.org фильмы через торрент без регистрации. Новинки кино в хорошем качестве через торрент. На UnionPeer.org можно скачать через торрент фильмы 2014 и 2015 годов. Самые новые фильмы.

Скачать торрент Волшебный парк Джун Wonder Park бесплатно через .torrent фильм мультфильм сериал

Статистика раздачи
Размер:  4.82 GB   |    Зарегистрирован:  1 месяц 2 дня   |    .torrent скачан:  118 раз   |   
Раздают:  2  
   
загрузка...
 
Автор Сообщение

Galfimbul

avatar Galfimbul


Волшебный парк Джун /Wonder Park

Год выхода: 2019
Жанр: Мультфильм, фэнтези, комедия, приключения, семейный

Режиссер: Джош Аппелбаум, Дэвид Фейсс

В ролях: София Мали, Дженнифер Гарнер, Кен Хадсон Кэмпбелл, Кенан Томпсон, Мила Кунис, Джон Оливер, Кен Жонг, Норберт Лео Батц, Мэттью Бродерик, Брианна Денски

О фильме: Однажды фантазерка Джун обнаруживает, что придуманный ею чудесный Парк развлечений реален! Но его существование под угрозой, и Джун нужен план спасения ее Мечты. Помогут девочке ее новые друзья — волшебные звери Парка.



Страна: Испания, США
Продолжительность: 01:25:17
Перевод:Профессиональный (полное дублирование) | iTunes

Файл
Кодек: H.265
Качество: BDRip-HEVC 1080p
Видео: HEVC, 1920x800 (2.40:1), 23.976 fps, 6 868 kb/s
Аудио 1: AC-3, 48.0 kHz, 6 ch, 384 kb/s (Russian)
Аудио 2: AC-3, 48.0 kHz, 2 ch, 192 kb/s (Ukrainian)
Аудио 3: AC-3, 48.0 kHz, 6 ch, 640 kb/s (English)
Субтитры: Русские (форс., полные), украинские (форс.), английские (полные)

Сэмпл
General
Unique ID : 200273351935424620356647644076129462880 (0x96AB3E9B30D8A0CB8E8C2844CD252A60)
Complete name : Wonder Park 2019.BDRip.1080p.HEVC..mkv
Format : Matroska
Format version : Version 4
File size : 4.82 GiB
Duration : 1 h 25 min
Overall bit rate : 8 086 kb/s
Encoded date : UTC 2019-06-21 21:43:10
Writing application : mkvmerge v8.3.0 ('Over the Horizon') 64bit
Writing library : libebml v1.3.1 + libmatroska v1.4.2

Video
ID : 1
Format : HEVC
Format/Info : High Efficiency Video Coding
Format profile : Main 10@L4.1@High
Codec ID : V_MPEGH/ISO/HEVC
Duration : 1 h 25 min
Bit rate : 6 868 kb/s
Width : 1 920 pixels
Height : 800 pixels
Display aspect ratio : 2.40:1
Frame rate mode : Constant
Frame rate : 23.976 (24000/1001) FPS
Color space : YUV
Chroma subsampling : 4:2:0
Bit depth : 10 bits
Bits/(Pixel*Frame) : 0.186
Stream size : 4.09 GiB (85%)
Language : English
Default : Yes
Forced : No
Color range : Limited
Color primaries : BT.709
Transfer characteristics : BT.709
Matrix coefficients : BT.709

Audio #1
ID : 2
Format : AC-3
Format/Info : Audio Coding 3
Commercial name : Dolby Digital
Codec ID : A_AC3
Duration : 1 h 25 min
Bit rate mode : Constant
Bit rate : 384 kb/s
Channel(s) : 6 channels
Channel layout : L R C LFE Ls Rs
Sampling rate : 48.0 kHz
Frame rate : 31.250 FPS (1536 SPF)
Bit depth : 16 bits
Compression mode : Lossy
Stream size : 234 MiB (5%)
Title : iTunes
Language : Russian
Default : Yes
Forced : No

Audio #2
ID : 3
Format : AC-3
Format/Info : Audio Coding 3
Commercial name : Dolby Digital
Codec ID : A_AC3
Duration : 1 h 25 min
Bit rate mode : Constant
Bit rate : 192 kb/s
Channel(s) : 2 channels
Channel layout : L R
Sampling rate : 48.0 kHz
Frame rate : 31.250 FPS (1536 SPF)
Bit depth : 16 bits
Compression mode : Lossy
Stream size : 117 MiB (2%)
Title : iTunes
Language : Ukrainian
Default : No
Forced : No

Audio #3
ID : 4
Format : AC-3
Format/Info : Audio Coding 3
Commercial name : Dolby Digital
Codec ID : A_AC3
Duration : 1 h 25 min
Bit rate mode : Constant
Bit rate : 640 kb/s
Channel(s) : 6 channels
Channel layout : L R C LFE Ls Rs
Sampling rate : 48.0 kHz
Frame rate : 31.250 FPS (1536 SPF)
Bit depth : 16 bits
Compression mode : Lossy
Stream size : 390 MiB (8%)
Language : English
Default : No
Forced : No

Text #1
ID : 5
Format : UTF-8
Codec ID : S_TEXT/UTF8
Codec ID/Info : UTF-8 Plain Text
Duration : 1 h 1 min
Bit rate : 0 b/s
Count of elements : 4
Stream size : 124 Bytes (0%)
Title : Forced
Language : Russian
Default : Yes
Forced : Yes

Text #2
ID : 6
Format : UTF-8
Codec ID : S_TEXT/UTF8
Codec ID/Info : UTF-8 Plain Text
Duration : 1 h 17 min
Bit rate : 99 b/s
Count of elements : 1116
Stream size : 56.4 KiB (0%)
Title : Full
Language : Russian
Default : No
Forced : No

Text #3
ID : 7
Format : UTF-8
Codec ID : S_TEXT/UTF8
Codec ID/Info : UTF-8 Plain Text
Duration : 1 h 4 min
Bit rate : 0 b/s
Count of elements : 4
Stream size : 101 Bytes (0%)
Title : Forced
Language : Ukrainian
Default : No
Forced : No

Text #4
ID : 8
Format : UTF-8
Codec ID : S_TEXT/UTF8
Codec ID/Info : UTF-8 Plain Text
Duration : 1 h 17 min
Bit rate : 64 b/s
Count of elements : 1105
Stream size : 36.6 KiB (0%)
Title : Full
Language : English
Default : No
Forced : No

Menu
00:00:00.000 : :Chapter 01
00:06:34.811 : :Chapter 02
00:12:05.474 : :Chapter 03
00:20:22.846 : :Chapter 04
00:25:49.589 : :Chapter 05
00:33:03.648 : :Chapter 06
00:39:14.185 : :Chapter 07
00:47:39.648 : :Chapter 08
00:54:39.442 : :Chapter 09
01:00:32.462 : :Chapter 10
01:06:17.807 : :Chapter 11
01:13:12.054 : :Chapter 12
01:17:49.748 : :Chapter 13
Источник http://BlaTor.org

Трекер:  [ 22-Июн-2019 02:50 ]

  

Скачать .torrent

Размер .torrent файла 12 KB


Размер: 4.82 GB
Хэш (hash) релиза: 4d7f36bea6fdf16413ba1e46b744f7d89b11fe1c
Подписка на обновления:

Торренты, похожие на Волшебный парк Джун Wonder Park скачать торрент

Форум Название Автор Размер S L Добавлен
Мультфильмы 2016-2018 (Новинки мультфильмов) ·%· Волшебный парк Джун / Wonder Park (2019) BDRip 1080p от Талямбы | 60 fps | iTunes Galfimbul 1780351384016.58 GB 0 0 1563922382

01:53

24-Июл-19

Мультфильмы 2016-2018 (Новинки мультфильмов) ·%· Волшебный парк Джун / Wonder Park (2019) BDRip 1080p от HELLYWOOD | iTunes Galfimbul 71241958456.63 GB 2 0 1562673759

15:02

9-Июл-19

Мультфильмы 2016-2018 (Новинки мультфильмов) ·%· Волшебный парк Джун / Wonder Park (2019) BDRip-HEVC 720p | iTunes Galfimbul 20366056631.9 GB 0 0 1561557627

17:00

26-Июн-19

Мультфильмы 2016-2018 (Новинки мультфильмов) ·%· Волшебный парк Джун / Wonder Park (2019) BDRip-AVC от OlLanDGroup | iTunes Galfimbul 14127725811.32 GB 0 0 1561302619

18:10

23-Июн-19

Мультфильмы 2016-2018 (Новинки мультфильмов) ·%· Волшебный парк Джун / Wonder Park (2019) HDRip от Portablius | iTunes Galfimbul 825575703787 MB 2 0 1561281032

12:10

23-Июн-19

Мультфильмы 2016-2018 (Новинки мультфильмов) ·%· Волшебный парк Джун / Wonder Park (2019) BDRip от Twister & ExKinoRay | iTunes Galfimbul 15277160681.42 GB 2 0 1561273824

10:10

23-Июн-19

Мультфильмы 2016-2018 (Новинки мультфильмов) ·%· Волшебный парк Джун / Wonder Park (2019) BDRip-AVC от ExKinoRay | iTunes Galfimbul 24518919972.28 GB 0 0 1561020647

11:50

20-Июн-19

Мультфильмы 2016-2018 (Новинки мультфильмов) ·%· Волшебный парк Джун / Wonder Park (2019) BDRip от MegaPeer | iTunes Galfimbul 15287316481.42 GB 0 0 1561014059

10:00

20-Июн-19

Мультфильмы 2016-2018 (Новинки мультфильмов) ·%· Волшебный парк Джун / Wonder Park (2019) BDRemux 1080p от селезень | iTunes Galfimbul 2084996891819.42 GB 0 0 1560996024

05:00

20-Июн-19

Мультфильмы 2016-2018 (Новинки мультфильмов) ·%· Волшебный парк Джун / Wonder Park (2019) BDRip 720p от селезень | iTunes Galfimbul 37508542393.49 GB 2 0 1560985214

02:00

20-Июн-19

Мультфильмы 2016-2018 (Новинки мультфильмов) ·%· Волшебный парк Джун / Wonder Park (2019) BDRip 1080p от селезень | iTunes Galfimbul 88267357108.22 GB 0 0 1560984019

01:40

20-Июн-19

Еще никто не оставлял запись к записи скачать торрент Волшебный парк Джун Wonder Park . Будь первым!

!Обратная связь