Скачать через торрент Последствия The Aftermath Фильм бесплатно в хорошем качестве torrent

Скачивайте на UnionPeer.org фильмы через торрент без регистрации. Новинки кино в хорошем качестве через торрент. На UnionPeer.org можно скачать через торрент фильмы 2014 и 2015 годов. Самые новые фильмы.

Скачать торрент Последствия The Aftermath бесплатно через .torrent фильм мультфильм сериал

Статистика раздачи
Размер:  11.74 GB   |    Зарегистрирован:  8 месяцев   |    .torrent скачан:  55 раз   |   
Раздают:  1  
 

Скачать Последствия / The Aftermath (2019) BDRip 1080p от селезень | iTunes через torrent

 
загрузка...
 
Автор Сообщение

Galfimbul ghost

avatar Galfimbul ghost


Последствия /The Aftermath

Год выхода: 2019
Жанр: Драма, мелодрама, военный
Режиссер: Джеймс Кент
В ролях: Кира Найтли, Александр Скарсгард, Джейсон Кларк, Фионн О’Ши, Кейт Филлипс, Мартин Компстон, Александр Шеер, Анна Катарина Шримригк, Нед Виллс, Пандора Колин



О фильме: Германия после Второй мировой войны. В стране беспорядок, разруха, голод. Главный герой — британский военный Льюис Морган, который назначен временным мэром Гамбурга. Ему предстоит восстанавливать город почти с нуля. Вместе с женой Льюис селится в роскошный особняк, где живет немецкий архитектор с эмоционально нестабильной дочерью. Смогут ли бывшие враги ужиться под одной крышей или желание отомстить будет сильнее?

Страна: Великобритания, Германия, США
Студия: Amusement Park Films, Fox Searchlight Pictures, Scott Free Productions
Продолжительность: 01:48:38
Перевод: Дублированный | iTunes

Качество: BDRip 1080p
Видео: MPEG-4 AVC, 1920x1038, 14.3 Mbit/s, 23.976 fps
Звук:
Аудио #01: 48 kHz, AC3, 5.1, 384 Kbps | iTunes | RUS |
Аудио #02: 48 kHz, AC3, 2.0, 160 Kbps | iTunes | UKR |
Аудио #03: 48 kHz, AC3, 5.1, 640 Kbps | Оригинал | ENG |
Субтитры: Русские (forced, full), украинские (forced), английские

General
Unique ID : 46497045467302583733593023956302359371 (0x22FB015609FD548463C68B102066EB4B)
Complete name : D:Video111The.Aftermath.2019.BDRip.1080p.seleZen.mkv
Format : Matroska
Format version : Version 4
File size : 11.7 GiB
Duration : 1 h 48 min
Overall bit rate : 15.5 Mb/s
Movie name : The Aftermath 2019 from селезень
Encoded date : UTC 2019-06-22 08:44:23
Writing application : mkvmerge v33.1.0 ('Primrose') 64-bit
Writing library : libebml v1.3.7 + libmatroska v1.5.0

Video
ID : 1
Format : AVC
Format/Info : Advanced Video Codec
Format profile : High@L4.1
Format settings : CABAC / 4 Ref Frames
Format settings, CABAC : Yes
Format settings, Reference : 4 frames
Codec ID : V_MPEG4/ISO/AVC
Duration : 1 h 48 min
Bit rate : 14.3 Mb/s
Width : 1 920 pixels
Height : 1 038 pixels
Display aspect ratio : 1.85:1
Frame rate mode : Constant
Frame rate : 23.976 (24000/1001) FPS
Color space : YUV
Chroma subsampling : 4:2:0
Bit depth : 8 bits
Scan type : Progressive
Bits/(Pixel*Frame) : 0.299
Stream size : 10.8 GiB (92%)
Title : CHD
Writing library : x264 core 157 r2867+150 7e91e0e t_mod_Custom_2 [8-bit@all X86_64]
Encoding settings : cabac=1 / ref=4 / deblock=1:-3:-3 / analyse=0x3:0x133 / me=umh / subme=11 / psy=1 / fade_compensate=0.00 / psy_rd=1.00:0.00 / mixed_ref=1 / me_range=64 / chroma_me=1 / trellis=2 / 8x8dct=1 / cqm=0 / deadzone=21,11 / fast_pskip=0 / chroma_qp_offset=-3 / threads=24 / lookahead_threads=4 / sliced_threads=0 / nr=0 / decimate=1 / interlaced=0 / bluray_compat=0 / constrained_intra=0 / fgo=0 / bframes=8 / b_pyramid=2 / b_adapt=2 / b_bias=0 / direct=3 / weightb=1 / open_gop=0 / weightp=2 / keyint=250 / keyint_min=23 / scenecut=40 / intra_refresh=0 / rc=crf / mbtree=0 / crf=18.0000 / qcomp=0.70 / qpmin=0:0:0 / qpmax=69:69:69 / qpstep=4 / ip_ratio=1.40 / pb_ratio=1.30 / aq=3:1.00 / aq-sensitivity=10.00 / aq-factor=1.00:1.00:1.00 / aq2=0 / aq3=0
Language : English
Default : Yes
Forced : No

Audio #1
ID : 2
Format : AC-3
Format/Info : Audio Coding 3
Commercial name : Dolby Digital
Codec ID : A_AC3
Duration : 1 h 48 min
Bit rate mode : Constant
Bit rate : 384 kb/s
Channel(s) : 6 channels
Channel layout : L R C LFE Ls Rs
Sampling rate : 48.0 kHz
Frame rate : 31.250 FPS (1536 SPF)
Bit depth : 16 bits
Compression mode : Lossy
Stream size : 298 MiB (2%)
Title : iTunes
Language : Russian
Service kind : Complete Main
Default : Yes
Forced : Yes

Audio #2
ID : 3
Format : AC-3
Format/Info : Audio Coding 3
Commercial name : Dolby Digital
Codec ID : A_AC3
Duration : 1 h 48 min
Bit rate mode : Constant
Bit rate : 160 kb/s
Channel(s) : 2 channels
Channel layout : L R
Sampling rate : 48.0 kHz
Frame rate : 31.250 FPS (1536 SPF)
Bit depth : 16 bits
Compression mode : Lossy
Stream size : 124 MiB (1%)
Title : iTunes
Language : Ukrainian
Service kind : Complete Main
Default : No
Forced : No

Audio #3
ID : 4
Format : AC-3
Format/Info : Audio Coding 3
Commercial name : Dolby Digital
Codec ID : A_AC3
Duration : 1 h 48 min
Bit rate mode : Constant
Bit rate : 640 kb/s
Channel(s) : 6 channels
Channel layout : L R C LFE Ls Rs
Sampling rate : 48.0 kHz
Frame rate : 31.250 FPS (1536 SPF)
Bit depth : 16 bits
Compression mode : Lossy
Stream size : 497 MiB (4%)
Title : Original
Language : English
Service kind : Complete Main
Default : No
Forced : No

Text #1
ID : 5
Format : UTF-8
Codec ID : S_TEXT/UTF8
Codec ID/Info : UTF-8 Plain Text
Duration : 1 h 42 min
Bit rate : 3 b/s
Count of elements : 79
Stream size : 2.72 KiB (0%)
Title : Forced
Language : Russian
Default : Yes
Forced : Yes

Text #2
ID : 6
Format : UTF-8
Codec ID : S_TEXT/UTF8
Codec ID/Info : UTF-8 Plain Text
Duration : 1 h 47 min
Bit rate : 44 b/s
Count of elements : 837
Stream size : 35.0 KiB (0%)
Title : Full
Language : Russian
Default : No
Forced : No

Text #3
ID : 7
Format : UTF-8
Codec ID : S_TEXT/UTF8
Codec ID/Info : UTF-8 Plain Text
Duration : 1 h 31 min
Bit rate : 3 b/s
Count of elements : 74
Stream size : 2.45 KiB (0%)
Title : Forced
Language : Ukrainian
Default : No
Forced : No

Text #4
ID : 8
Format : UTF-8
Codec ID : S_TEXT/UTF8
Codec ID/Info : UTF-8 Plain Text
Duration : 1 h 18 min
Bit rate : 2 b/s
Count of elements : 61
Stream size : 1.30 KiB (0%)
Title : Forced
Language : English
Default : No
Forced : No

Text #5
ID : 9
Format : UTF-8
Codec ID : S_TEXT/UTF8
Codec ID/Info : UTF-8 Plain Text
Duration : 1 h 39 min
Bit rate : 31 b/s
Count of elements : 949
Stream size : 22.8 KiB (0%)
Title : Full
Language : English
Default : No
Forced : No

Menu
00:00:01.026 : en:Chapter 01
00:04:00.223 : en:Chapter 02
00:10:37.411 : en:Chapter 03
00:14:21.176 : en:Chapter 04
00:17:51.803 : en:Chapter 05
00:22:40.550 : en:Chapter 06
00:27:50.902 : en:Chapter 07
00:35:09.548 : en:Chapter 08
00:37:11.044 : en:Chapter 09
00:41:33.096 : en:Chapter 10
00:46:29.099 : en:Chapter 11
00:49:59.892 : en:Chapter 12
00:56:03.714 : en:Chapter 13
01:02:05.699 : en:Chapter 14
01:04:49.653 : en:Chapter 15
01:09:01.278 : en:Chapter 16
01:15:59.320 : en:Chapter 17
01:19:48.048 : en:Chapter 18
01:22:09.063 : en:Chapter 19
01:27:01.521 : en:Chapter 20
01:29:36.800 : en:Chapter 21
01:33:39.626 : en:Chapter 22
01:39:16.044 : en:Chapter 23
01:42:47.880 : en:Chapter 24
Источник http://BlaTor.org

Трекер:  [ 22-Июн-2019 12:00 ]

  

Скачать .torrent

Размер .torrent файла 15 KB


Размер: 11.74 GB
Хэш (hash) релиза: c3d87d0501b797252aeaa58f2ce0a95c1b3457da
Подписка на обновления:

Торренты, похожие на Последствия The Aftermath скачать торрент

Форум Название Автор Размер S L Добавлен
Зарубежные фильмы 2016-2019 (Новинки зарубежного кино) ·%· Последствия / The Aftermath (2019) BDRip от ExKinoRay | Лицензия Galfimbul ghost 23402850972.18 GB 0 0 1567216207

04:50

31-Авг-19

Зарубежные фильмы 2016-2019 (Новинки зарубежного кино) ·%· Последствия / The Aftermath (2019) BDRip 720p от Талямбы | 60 fps | iTunes Galfimbul ghost 91155090948.49 GB 0 0 1564635144

07:52

1-Авг-19

Зарубежные фильмы 2016-2019 (Новинки зарубежного кино) ·%· Последствия / The Aftermath (2019) BDRip от Twister & ExKinoRay | Лицензия Galfimbul ghost 15700906201.46 GB 0 0 1562869100

21:18

11-Июл-19

Зарубежные фильмы 2016-2019 (Новинки зарубежного кино) ·%· Последствия / The Aftermath (2019) BDRip 1080p от селезень | Лицензия Galfimbul ghost 1352135070512.59 GB 0 0 1562803829

03:10

11-Июл-19

Зарубежные фильмы 2016-2019 (Новинки зарубежного кино) ·%· Последствия / The Aftermath (2019) BDRip-AVC от HELLYWOOD | iTunes Galfimbul ghost 15160328731.41 GB 0 0 1561894212

14:30

30-Июн-19

Зарубежные фильмы 2016-2019 (Новинки зарубежного кино) ·%· Последствия / The Aftermath (2019) HDRip | iTunes Galfimbul ghost 23269671112.17 GB 0 0 1561474328

17:52

25-Июн-19

Зарубежные фильмы 2016-2019 (Новинки зарубежного кино) ·%· Последствия / The Aftermath (2019) HDRip | КПК | iTunes Galfimbul ghost 458546305437 MB 0 0 1561474229

17:50

25-Июн-19

Зарубежные фильмы 2016-2019 (Новинки зарубежного кино) ·%· Последствия / The Aftermath (2019) BDRip 720p от селезень | iTunes Galfimbul ghost 54476824445.07 GB 2 0 1561261807

06:50

23-Июн-19

Зарубежные фильмы 2016-2019 (Новинки зарубежного кино) ·%· Последствия / The Aftermath (2019) BDRemux 1080p от селезень | iTunes Galfimbul ghost 2761114234525.71 GB 0 0 1561240219

00:50

23-Июн-19

Зарубежные фильмы 2016-2019 (Новинки зарубежного кино) ·%· Последствия / The Aftermath (2019) HDRip | iTunes Galfimbul ghost 781592576745 MB 0 0 1561229413

21:50

22-Июн-19

Зарубежные фильмы 2016-2019 (Новинки зарубежного кино) ·%· Последствия / The Aftermath (2019) WEB-DLRip от Portablius | iTunes Galfimbul ghost 781891356746 MB 0 0 1560769819

14:10

17-Июн-19

Зарубежные фильмы 2016-2019 (Новинки зарубежного кино) ·%· Последствия / The Aftermath (2019) WEB-DLRip от Scarabey | iTunes Galfimbul ghost 15523737601.45 GB 0 0 1560707446

20:50

16-Июн-19

Зарубежные фильмы 2016-2019 (Новинки зарубежного кино) ·%· Последствия / The Aftermath (2019) WEB-DLRip-AVC от OlLanDGroup | iTunes Galfimbul ghost 15676414131.46 GB 0 0 1560561010

04:10

15-Июн-19

Зарубежные фильмы 2016-2019 (Новинки зарубежного кино) ·%· Последствия / The Aftermath (2019) WEB-DLRip-AVC от ExKinoRay | iTunes Galfimbul ghost 781963875746 MB 0 0 1560534014

20:40

14-Июн-19

Зарубежные фильмы 2016-2019 (Новинки зарубежного кино) ·%· Последствия / The Aftermath (2019) UHD WEB-DL 2160p от селезень | HDR | iTunes Galfimbul ghost 2093008529319.49 GB 0 0 1560498009

10:40

14-Июн-19

Зарубежные фильмы 2016-2019 (Новинки зарубежного кино) ·%· Последствия / The Aftermath (2019) UHD WEB-DL 2160p от селезень | SDR | iTunes Galfimbul ghost 2100577008719.56 GB 0 0 1560496829

10:20

14-Июн-19

Зарубежные фильмы 2016-2019 (Новинки зарубежного кино) ·%· Последствия / The Aftermath (2019) WEB-DLRip от MegaPeer | iTunes Galfimbul ghost 15667267031.46 GB 0 0 1560496814

10:20

14-Июн-19

Зарубежные фильмы 2016-2019 (Новинки зарубежного кино) ·%· Последствия / The Aftermath (2019) WEB-DL 720p от селезень | iTunes Galfimbul ghost 40574785453.78 GB 0 0 1560495638

10:00

14-Июн-19

Зарубежные фильмы 2016-2019 (Новинки зарубежного кино) ·%· Последствия / The Aftermath (2019) WEB-DL 1080p от селезень | iTunes Galfimbul ghost 49380433264.6 GB 0 0 1560494414

09:40

14-Июн-19

Еще никто не оставлял запись к записи скачать торрент Последствия The Aftermath . Будь первым!

!Обратная связь