Скачать через торрент Братство Фильм бесплатно в хорошем качестве torrent

Скачивайте на UnionPeer.org фильмы через торрент без регистрации. Новинки кино в хорошем качестве через торрент. На UnionPeer.org можно скачать через торрент фильмы 2014 и 2015 годов. Самые новые фильмы.

Скачать торрент Братство бесплатно через .torrent фильм мультфильм сериал

Статистика раздачи
Размер:  4.45 GB   |    Зарегистрирован:  4 месяца 29 дней   |    .torrent скачан:  299 раз   |   
Раздают:  1  
 

Скачать Братство (2019) WEB-DL 1080p | iTunes через torrent

 
загрузка...
 
Автор Сообщение

Galfimbul

avatar Galfimbul


Братство



[b]Год выхода:
2019
Жанр: Драма, боевик, история, военный
Режиссер: Павел Лунгин
В ролях: Кирилл Пирогов, Ян Цапник, Виталий Кищенко, Фёдор Лавров, Олег Васильков, Антон Момот, Михаил Кремер, Кирилл Ермичев, Роман Колотухин, Василий Буткевич

О фильме:
1988 год, канун вывода советских войск из Афганистана. Командование 108-й мотострелковой дивизии планирует отход через перевал Саланг, подконтрольный группировке моджахедов Инженера Хошема. Разведка пытается договориться о перемирии с душманами, но дело осложняется тем, что в плен к Хошему попадает советский военный пилот. Начинается сложная игра, в которой переплетаются противоположные интересы множества самых разных людей: штабистов, исламистов, спецназа, разведки, чиновников из афганского правительства, сотрудников советских спецслужб, таджиков и пуштунов. А в самом центре этого водоворота оказываются солдаты разведроты, для которых важнее любых политических соображений остается правило — не бросать своих.



Страна: Россия
Студия: Мастерская Павла Лунгина
Продолжительность: 01:52:28
Перевод: Не требуется

Файл
Качество: WEB-DL 1080p
Формат: MKV
Кодек: MPEG-4 AVC
Видео: 1920x1080 (16:9), 24 fps, MPEG-4 AVC ~ 5166 Kbps avg, 0.104 bit/pixel
Аудио: AC3, 48 kHz, 6 ch, ~384.00 kbps avg | русский | iTunes
Общее
Уникальный идентификатор : 93094822148981909514033945541536778920 (0x4609691ABFD6062D03B3080D72EA0AA8)
Полное имя : BRATSTVO (2019) WEB-DL 1080p.mkv
Формат : Matroska
Версия формата : Version 4 / Version 2
Размер файла : 4,45 Гбайт
Продолжительность : 1 ч. 52 м.
Общий поток : 5663 Кбит/сек
Название фильма : Братство (2019)
Дата кодирования : UTC 2019-06-23 20:44:28
Программа кодирования : mkvmerge v27.0.0 ('Metropolis') 64-bit
Библиотека кодирования : libebml v1.3.6 + libmatroska v1.4.9

Видео
Идентификатор : 1
Формат : AVC
Формат/Информация : Advanced Video Codec
Профиль формата : High@L4
Настройки формата : CABAC / 4 Ref Frames
Параметр CABAC формата : Да
Параметр RefFrames формата : 4 кадра
Идентификатор кодека : V_MPEG4/ISO/AVC
Продолжительность : 1 ч. 52 м.
Битрейт : 5277 Кбит/сек
Ширина : 1920 пикселей
Высота : 1080 пикселей
Соотношение сторон : 16:9
Режим частоты кадров : Постоянный
Частота кадров : 24,000 кадра/сек
Цветовое пространство : YUV
Субдискретизация насыщенности : 4:2:0
Битовая глубина : 8 бит
Тип развёртки : Прогрессивная
Бит/(Пиксели*Кадры) : 0.106
Размер потока : 4,15 Гбайт (93%)
Заголовок : BRATSTVO (2019) WEB-DL 1080p
Язык : Russian
Default : Да
Forced : Нет
Цветовой диапазон : Limited
Основные цвета : BT.709
Характеристики трансфера : BT.709
Коэффициенты матрицы : BT.709

Аудио
Идентификатор : 2
Формат : AC-3
Формат/Информация : Audio Coding 3
Идентификатор кодека : A_AC3
Продолжительность : 1 ч. 52 м.
Вид битрейта : Постоянный
Битрейт : 384 Кбит/сек
Каналы : 6 каналов
Расположение каналов : Front: L C R, Side: L R, LFE
Частота : 48,0 КГц
Частота кадров : 31,250 кадров/сек (1536 SPF)
Битовая глубина : 16 бит
Метод сжатия : С потерями
Размер потока : 309 Мбайт (7%)
Заголовок : iTunes
Язык : Russian
Default : Да
Forced : Нет
Источник http://BlaTor.org

Трекер:  [ 24-Июн-2019 00:10 ]

  

Скачать .torrent

Размер .torrent файла 11 KB


Размер: 4.45 GB
Хэш (hash) релиза: 9604ecdaae1d81e522d541457c5da28e03c8666a
Подписка на обновления:

Торренты, похожие на Братство скачать торрент

Форум Название Автор Размер S L Добавлен
Зарубежные фильмы до 2016 ·· Братство волка / Братство волков / Le Pacte Des Loups / Brotherhood of the Wolf (Кристоф Ганс / Christophe Gans) [2001, Франция, триллер, приключения, HDDVDRip] [Режиссерская версия / Director's Cut] AVO (Юрий Сербин) Galfimbul 22254325762.07 GB 0 0 1515250914

18:01

6-Янв-18

Зарубежные фильмы до 2016 ·· Братство волка 2: Возвращение оборотня / Братство волка 2: Возвращение Жеводанского оборотня / Жеводанский зверь / La bête du Gévaudan (Патрик Вольсон / Patrick Volson) [2003, Франция, триллер, детектив, мистика, DVDRip] MVO + MVO Galfimbul 15647580161.46 GB 0 0 1359014100

10:55

24-Янв-13

Российские фильмы 2016-2018 (Новинки русского кино) ·%· Братство (2019) WEB-DLRip от Scarabey | iTunes Galfimbul 781910016746 MB 0 0 1561573213

21:20

26-Июн-19

Российские фильмы 2016-2018 (Новинки русского кино) ·%· Братство (2019) WEB-DLRip от Scarabey | iTunes Galfimbul 15554600961.45 GB 0 0 1561572019

21:00

26-Июн-19

Российские фильмы 2016-2018 (Новинки русского кино) ·%· Братство (2019) WEB-DLRip-AVC от New-Team Galfimbul 780974687745 MB 0 0 1561379414

15:30

24-Июн-19

Российские фильмы 2016-2018 (Новинки русского кино) ·%· Братство (2019) WEB-DLRip от Files-x Galfimbul 14758010881.37 GB 3 0 1561378227

15:10

24-Июн-19

Российские фильмы 2016-2018 (Новинки русского кино) ·%· Братство (2019) EB-DLRip-AVC от Files-x | iTunes Galfimbul 15635395011.46 GB 2 0 1561375826

14:30

24-Июн-19

Российские фильмы 2016-2018 (Новинки русского кино) ·%· Братство (2019) WEB-DLRip от Generalfilm | КПК | iTunes Galfimbul 447096186426 MB 0 0 1561374611

14:10

24-Июн-19

Российские фильмы 2016-2018 (Новинки русского кино) ·%· Братство (2019) WEB-DLRip-AVC от New-Team Galfimbul 15609699651.45 GB 0 0 1561368618

12:30

24-Июн-19

Российские фильмы 2016-2018 (Новинки русского кино) ·%· Братство (2019) WEB-DLRip-AVC | iTunes Galfimbul 780850634745 MB 0 0 1561367410

12:10

24-Июн-19

Российские фильмы 2016-2018 (Новинки русского кино) ·%· Братство (2019) WEB-DLRip от MegaPeer | iTunes Galfimbul 15700418561.46 GB 2 0 1561358412

09:40

24-Июн-19

Российские фильмы 2016-2018 (Новинки русского кино) ·%· Братство (2019) WEB-DLRip-AVC от OlLanDGroup | iTunes Galfimbul 15643606671.46 GB 0 0 1561357225

09:20

24-Июн-19

Российские фильмы 2016-2018 (Новинки русского кино) ·%· Братство (2019) WEB-DLRip от GeneralFilm | iTunes Galfimbul 782723072746 MB 0 0 1561350010

07:20

24-Июн-19

Российские фильмы 2016-2018 (Новинки русского кино) ·%· Братство (2019) WEB-DLRip-AVC от GeneralFilm | iTunes Galfimbul 20101046091.87 GB 0 0 1561335024

03:10

24-Июн-19

Российские фильмы 2016-2018 (Новинки русского кино) ·%· Братство (2019) WEB-DLRip от GeneralFilm | iTunes Galfimbul 15636336641.46 GB 2 0 1561333814

02:50

24-Июн-19

Российские фильмы 2016-2018 (Новинки русского кино) ·%· Братство (2019) WEB-DLRip | iTunes Galfimbul 15552552961.45 GB 0 0 1561325412

00:30

24-Июн-19

Зарубежные фильмы до 2016 ·%· Братство волка /Le Pacte des loups [2001, Франция, Триллер / Ужасы, DVDRip] Galfimbul 700180480668 MB 0 0 1532433718

15:01

24-Июл-18

Азиатские фильмы ·%· Кровавое братство / Bloody Brotherhood / Tong gen sheng (Джонни Ванг / Johnny Wang) [1989, Гонконг, боевик, криминал, DVDRip] VO (Вячеслав Котов) Galfimbul 15612088321.45 GB 0 0 1532269810

17:30

22-Июл-18

Азиатские фильмы ·%· Кровавое братство / Bloody Brotherhood / Tong gen sheng (Джонни Ванг / Johnny Wang) [1989, Гонконг, боевик, криминал, DVD5(Custom)] VO (Котов) + Sub Eng + Original Zho Galfimbul 45627248644.25 GB 0 0 1531681322

22:02

15-Июл-18

Еще никто не оставлял запись к записи скачать торрент Братство . Будь первым!

!Обратная связь