Скачать через торрент Отпетые напарники По следу Фильм бесплатно в хорошем качестве torrent

Скачивайте на UnionPeer.org фильмы через торрент без регистрации. Новинки кино в хорошем качестве через торрент. На UnionPeer.org можно скачать через торрент фильмы 2014 и 2015 годов. Самые новые фильмы.

Скачать торрент Отпетые напарники По следу бесплатно через .torrent фильм мультфильм сериал

Статистика раздачи
Размер:  6.62 GB   |    Зарегистрирован:  4 года 8 месяцев   |    .torrent скачан:  40 раз   |   
Раздают:  1  
 

Скачать Отпетые напарники / По следу / Skiptrace (2015) BDRip-HEVC 1080p | D, P | iTunes через torrent

 
 
Автор Сообщение

Galfimbul

avatar Galfimbul


Отпетые напарники /Skiptrace

Год выхода: 2015
Жанр: боевик, триллер, комедия, криминал
Режиссер: Ренни Харлин
В ролях: Джеки Чан, Джонни Ноксвил, Фань Бинбин, Эрик Цан, Ив Торрес, Уинстон Чао, Ён Джон-хун, Ши Ши, Майкл Вон, Дилан Ко

О фильме: Чтобы обезвредить преступный синдикат и спасти свою племянницу, самый честный коп должен взять в напарники красавчика-афериста. Они полные противоположности, но у них одна опасная миссия. Они в бегах, но им не избежать друг друга.



Страна: Китай, Гонконг, США
Студия: Beijing Tianhua Huawen Motion Picture Investment Co., Cider Mill Pictures, Dasym EnetertainmentC
Продолжительность: 01:47:40
Перевод: дублированный, профессиональный многоголосый

Качество: BDRip-HEVC 1080p
Кодек: HEVC (x265)
Видео: 1920x800 (2,40:1), 6659 кбит/сек, 0.181 бит/(Пиксели*Кадры), 23.976 (24000/1001) кадр/сек, HEVC ([email protected]@High) 10 бит
Звук:
Аудио1: AC3, 6 ch, 384 Kbps - русский Дублированный (iTunes)
Аудио2: AC3, 6 ch, 640 Kbps - русский Многоголосый ("Paradox" & Omskbird)
Аудио3: AC3, 6 ch, 640 Kbps - русский Многоголосый (Карусель)
Аудио4: AAC, 6 ch, 480 Kbps - english Original
Субтитры: отсутствуют
Навигация по главам: Есть
x265 info: frame I: 660, Avg QP:17.54 kb/s: 20436.39
x265 info: frame P: 35426, Avg QP:19.02 kb/s: 12645.08
x265 info: frame B: 118823, Avg QP:21.07 kb/s: 4797.41
x265 info: Weighted P-Frames: Y:5.6% UV:4.6%
x265 info: Weighted B-Frames: Y:4.6% UV:3.7%
x265 info: consecutive B-frames: 6.8% 7.1% 13.5% 35.9% 11.6% 17.1% 3.5% 2.8% 0.8% 0.5% 0.4%
x265 info: encoded 154909 frames in 168560.26s (0.92 fps), 6658.71 kb/s, Avg QP:20.58

Формат : Matroska
Версия формата : Version 4
Размер файла : 6,62 Гбайт
Продолжительность : 1 ч. 47 м.
Общий поток : 8806 Кбит/сек
Название фильма : Skiptrace
Описание : A detective from Hong Kong teams up with an American gambler to battle against a notorious Chinese criminal.
Дата кодирования : UTC 2019-06-24 14:29:07
Программа кодирования : mkvmerge v35.0.0 ('All The Love In The World') 64-bit
Библиотека кодирования : libebml v1.3.9 + libmatroska v1.5.2 / Lavf57.71.100
Примечание : Rip by OldGamer
Attachments : poster.jpg
ACTORS : Jackie Chan, Johnny Knoxville, Bingbing Fan, Eric Tsang
COUNTRY : China, Hong Kong, USA
DATE : 2016
DIRECTOR : Renny Harlin
ENCODING_INFO : MATROSKA,WEBM > MKV / H264 > X265 CRF 19.5 Very Slow / AC3 > COPY Безопасное / DTS > AC3 CBR 864kbps / DTS > AC3 CBR 864kbps / DTS-HD MA > AAC CBR 480kbps LC
GENRE : Action, Adventure, Comedy, Crime, Thriller
HD_VIDEO : 1
IMDB_RATING : 5.7
ITUNEXTC : mpaa|PG-13|300|
Язык : und
MEDIA_TYPE : 9
WRITER : Jay Longino (story), Jay Longino (screenplay), BenDavid Grabinski (screenplay), Wen-Chia Chang (development executive)

Видео
Идентификатор : 1
Формат : HEVC
Формат/Информация : High Efficiency Video Coding
Профиль формата : Main [email protected]@High
Идентификатор кодека : V_MPEGH/ISO/HEVC
Продолжительность : 1 ч. 47 м.
Битрейт : 6659 Кбит/сек
Ширина : 1920 пикселей
Высота : 800 пикселей
Соотношение сторон : 2,40:1
Режим частоты кадров : Постоянный
Частота кадров : 23,976 (24000/1001) кадра/сек
Цветовое пространство : YUV
Субдискретизация насыщенности : 4:2:0
Битовая глубина : 10 бит
Бит/(Пиксели*Кадры) : 0.181
Размер потока : 5,01 Гбайт (76%)
Библиотека кодирования : x265 2.9+9-f74003e88622:[Mac OS X][clang 10.0.0][64 bit] 10bit
Настройки программы : cpuid=1111039 / frame-threads=14 / wpp / no-pmode / no-pme / no-psnr / no-ssim / log-level=3 / input-csp=1 / input-res=1920x800 / interlace=0 / total-frames=0 / level-idc=41 / high-tier=1 / uhd-bd=0 / ref=5 / allow-non-conformance / no-repeat-headers / annexb / no-aud / no-hrd / info / hash=0 / no-temporal-layers / open-gop / min-keyint=23 / keyint=240 / gop-lookahead=0 / bframes=10 / b-adapt=2 / b-pyramid / bframe-bias=0 / rc-lookahead=60 / lookahead-slices=5 / scenecut=40 / radl=0 / no-intra-refresh / ctu=64 / min-cu-size=8 / rect / amp / max-tu-size=32 / tu-inter-depth=4 / tu-intra-depth=4 / limit-tu=1 / rdoq-level=2 / dynamic-rd=0.00 / no-ssim-rd / signhide / no-tskip / nr-intra=0 / nr-inter=0 / no-constrained-intra / no-strong-intra-smoothing / max-merge=5 / limit-refs=2 / no-limit-modes / me=3 / subme=7 / merange=57 / temporal-mvp / weightp / weightb / no-analyze-src-pics / deblock=-3:-3 / no-sao / no-sao-non-deblock / rd=6 / no-early-skip / rskip / no-fast-intra / no-tskip-fast / no-cu-lossless / no-b-intra / no-splitrd-skip / rdpenalty=0 / psy-rd=2.00 / psy-rdoq=1.00 / no-rd-refine / no-lossless / cbqpoffs=0 / crqpoffs=0 / rc=crf / crf=19.5 / qcomp=0.65 / qpstep=4 / stats-write=0 / stats-read=0 / vbv-maxrate=50000 / vbv-bufsize=50000 / vbv-init=0.9 / crf-max=0.0 / crf-min=0.0 / ipratio=1.40 / pbratio=1.30 / aq-mode=2 / aq-strength=0.80 / no-cutree / zone-count=0 / no-strict-cbr / qg-size=32 / no-rc-grain / qpmax=69 / qpmin=0 / no-const-vbv / sar=1 / overscan=0 / videoformat=5 / range=0 / colorprim=2 / transfer=2 / colormatrix=2 / chromaloc=0 / display-window=0 / max-cll=0,0 / min-luma=0 / max-luma=1023 / log2-max-poc-lsb=8 / vui-timing-info / vui-hrd-info / slices=1 / no-opt-qp-pps / no-opt-ref-list-length-pps / no-multi-pass-opt-rps / scenecut-bias=0.00 / no-opt-cu-delta-qp / aq-motion / no-hdr / no-hdr-opt / no-dhdr10-opt / no-idr-recovery-sei / analysis-reuse-level=5 / scale-factor=0 / refine-intra=0 / refine-inter=0 / refine-mv=0 / no-limit-sao / ctu-info=0 / no-lowpass-dct / refine-mv-type=0 / copy-pic=1 / max-ausize-factor=1.0 / no-dynamic-refine / no-single-sei
Язык : English
Default : Да
Forced : Нет
Цветовой диапазон : Limited

Аудио #1
Идентификатор : 2
Формат : AC-3
Формат/Информация : Audio Coding 3
Коммерческое название : Dolby Digital
Идентификатор кодека : A_AC3
Продолжительность : 1 ч. 47 м.
Вид битрейта : Постоянный
Битрейт : 384 Кбит/сек
Каналы : 6 каналов
Channel layout : L R C LFE Ls Rs
Частота : 48,0 КГц
Частота кадров : 31,250 кадров/сек (1536 SPF)
Битовая глубина : 16 бит
Метод сжатия : С потерями
Размер потока : 296 Мбайт (4%)
Заголовок : iTunes
Язык : Russian
ServiceKind/ : Complete Main
Default : Да
Forced : Нет

Аудио #2
Идентификатор : 3
Формат : AC-3
Формат/Информация : Audio Coding 3
Коммерческое название : Dolby Digital
Идентификатор кодека : A_AC3
Продолжительность : 1 ч. 47 м.
Вид битрейта : Постоянный
Битрейт : 640 Кбит/сек
Каналы : 6 каналов
Channel layout : L R C LFE Ls Rs
Частота : 48,0 КГц
Частота кадров : 31,250 кадров/сек (1536 SPF)
Битовая глубина : 16 бит
Метод сжатия : С потерями
Размер потока : 493 Мбайт (7%)
Заголовок : MVO "Paradox" & Omskbird
Язык : Russian
ServiceKind/ : Complete Main
Default : Нет
Forced : Нет

Аудио #3
Идентификатор : 4
Формат : AC-3
Формат/Информация : Audio Coding 3
Коммерческое название : Dolby Digital
Идентификатор кодека : A_AC3
Продолжительность : 1 ч. 47 м.
Вид битрейта : Постоянный
Битрейт : 640 Кбит/сек
Каналы : 6 каналов
Channel layout : L R C LFE Ls Rs
Частота : 48,0 КГц
Частота кадров : 31,250 кадров/сек (1536 SPF)
Битовая глубина : 16 бит
Метод сжатия : С потерями
Размер потока : 493 Мбайт (7%)
Заголовок : MVO СПД
Язык : Russian
ServiceKind/ : Complete Main
Default : Нет
Forced : Нет

Аудио #4
Идентификатор : 5
Формат : AAC LC
Формат/Информация : Advanced Audio Codec Low Complexity
Идентификатор кодека : A_AAC-2
Продолжительность : 1 ч. 47 м.
Битрейт : 480 Кбит/сек
Каналы : 6 каналов
Channel layout : C L R Ls Rs LFE
Частота : 48,0 КГц
Частота кадров : 46,875 кадров/сек (1024 SPF)
Метод сжатия : С потерями
Размер потока : 370 Мбайт (5%)
Язык : English
Default : Нет
Forced : Нет

Меню
00:00:00.000 : :Chapter 1
00:06:04.988 : :Chapter 2
00:13:12.957 : :Chapter 3
00:20:20.801 : :Chapter 4
00:27:23.767 : :Chapter 5
00:34:51.505 : :Chapter 6
00:43:05.081 : :Chapter 7
00:49:09.277 : :Chapter 8
00:55:45.507 : :Chapter 9
01:04:06.342 : :Chapter 10
01:09:07.600 : :Chapter 11
01:15:53.631 : :Chapter 12
01:23:22.997 : :Chapter 13
01:30:19.329 : :Chapter 14
01:39:44.144 : :Chapter 15
01:43:30.746 : :Chapter 16


Автор: OldGamer
Источник http://BlaTor.org

Внимание! AdBlock блокирует показ скриншотов, все вопросы к разработчикам )))
Трекер:  [ 25-Июн-2019 17:50 ]

  

Скачать .torrent

Размер .torrent файла 17 KB


Размер: 6.62 GB
Хэш (hash) релиза: a9939e0b8f8c65a37bd06566e58e7076f31cb760
Подписка на обновления:

Еще никто не оставлял запись к записи скачать торрент Отпетые напарники По следу . Будь первым!

!Обратная связь