Скачать через торрент Первый мститель: Противостояние Captain America: Civil War Фильм бесплатно в хорошем качестве torrent

Скачивайте на UnionPeer.org фильмы через торрент без регистрации. Новинки кино в хорошем качестве через торрент. На UnionPeer.org можно скачать через торрент фильмы 2014 и 2015 годов. Самые новые фильмы.

Скачать торрент Первый мститель: Противостояние Captain America: Civil War бесплатно через .torrent фильм мультфильм сериал

Статистика раздачи
Размер:  2.76 GB   |    Зарегистрирован:  4 года 7 месяцев   |    .torrent скачан:  97 раз   |   
Раздают:  1  
 

Скачать Первый мститель: Противостояние / Captain America: Civil War (2016) BDRip-HEVC 720p | D через torrent

 
 
Автор Сообщение

Galfimbul

avatar Galfimbul


Первый мститель: Противостояние / Captain America: Civil War

Год выхода: 2016
Производство: США / Marvel Studios Inc., Walt Disney Pictures
Жанр: Фантастика, боевик, приключения
Продолжительность: 02:27:41

Режиссер: Энтони Руссо, Джо Руссо
В ролях: Крис Эванс, Роберт Дауни мл., Скарлетт Йоханссон, Себастьян Стэн, Энтони Маки, Дон Чидл, Джереми Реннер, Чэдвик Боузмэн, Пол Беттани, Элизабет Олсен

Описание: Мстители под руководством Капитана Америки оказываются участниками разрушительного инцидента, имеющего международный масштаб. Эти события заставляют правительство задуматься над тем, чтобы начать регулировать действия всех людей с особыми способностями, введя «Акт о регистрации супергероев», вынуждая их подчиняться ООН. Видя в этом договоре нарушение гражданских прав и плевок на всё, во что он верит, Стив Роджерс открыто восстаёт против нового режима, ведя за собой группу героев, поддерживающих его мнение. В свою очередь, Тони Старк видит смысл в новом договоре и становится во главе героев, поддерживающих его. Всё это приводит к неизбежному расколу Мстителей и войне между сторонами. Сражаясь друг с другом, Старк и Роджерс не знают о том, что таинственный Барон Земо уже строит свои собственные планы, воспользовавшись расколом величайших героев Земли.

Качество: BDRip-HEVC 720p
Видео: HEVC/H.265, 1280x536, ~1775 Kbps, 10 bit
Аудио 01: AC3, 6 ch, 448 Kbps | Русский, Дублированный
Аудио 02: AC3, 6 ch, 448 Kbps | Английский, Оригинал
Субтитры: Русские (форсированные, полные), английские (полные)
x265 info: frame I: 2406, Avg QP:15.79 kb/s: 8980.00
x265 info: frame P: 45594, Avg QP:17.39 kb/s: 3600.91
x265 info: frame B: 164474, Avg QP:20.12 kb/s: 1162.92
x265 info: Weighted P-Frames: Y:6.2% UV:4.7%
x265 info: consecutive B-frames: 14.7% 7.9% 8.7% 28.5% 10.7% 13.8% 5.5% 4.4% 2.0% 1.4% 0.8% 0.7% 0.3% 0.2% 0.2% 0.1% 0.1%
x265 info:
encoded 212474 frames in 136033.20s (1.56 fps), 1774.60 kb/s, Avg QP:19.49

Формат : Matroska
Версия формата : Version 4
Размер файла : 2,76 Гбайт
Продолжительность : 2 ч. 27 м.
Общий поток : 2674 Кбит/сек
Название фильма : Первый мститель: Противостояние (2016) Encoded_by_M@kSIMus
Дата кодирования : UTC 2019-06-30 13:49:34
Программа кодирования : mkvmerge v30.1.0 ('Forever And More') 64-bit
Библиотека кодирования : libebml v1.3.6 + libmatroska v1.4.9
Обложка : Yes
Attachments : cover13.jpg

Видео
Идентификатор : 1
Формат : HEVC
Формат/Информация : High Efficiency Video Coding
Идентификатор кодека : V_MPEGH/ISO/HEVC
Продолжительность : 2 ч. 27 м.
Битрейт : 1775 Кбит/сек
Ширина : 1280 пикселей
Высота : 536 пикселей
Соотношение сторон : 2,40:1
Режим частоты кадров : Постоянный
Частота кадров : 23,976 (24000/1001) кадра/сек
Цветовое пространство : YUV
Субдискретизация насыщенности : 4:2:0
Битовая глубина : 10 бит
Бит/(Пиксели*Кадры) : 0.108
Размер потока : 1,83 Гбайт (66%)
Библиотека кодирования : x265 2.9+9-f74003e88622:[Windows][GCC 8.2.0][64 bit] 10bit
Настройки программы : cpuid=1049583 / frame-threads=5 / numa-pools=4 / wpp / no-pmode / no-pme / no-psnr / no-ssim / log-level=3 / input-csp=1 / input-res=1280x536 / interlace=0 / total-frames=0 / level-idc=41 / high-tier=1 / uhd-bd=0 / ref=7 / allow-non-conformance / no-repeat-headers / annexb / no-aud / no-hrd / info / hash=0 / no-temporal-layers / open-gop / min-keyint=24 / keyint=240 / gop-lookahead=0 / bframes=16 / b-adapt=2 / b-pyramid / bframe-bias=0 / rc-lookahead=40 / lookahead-slices=0 / scenecut=40 / radl=0 / no-intra-refresh / ctu=32 / min-cu-size=8 / no-rect / no-amp / max-tu-size=32 / tu-inter-depth=4 / tu-intra-depth=4 / limit-tu=1 / rdoq-level=0 / dynamic-rd=0.00 / no-ssim-rd / signhide / no-tskip / nr-intra=0 / nr-inter=0 / no-constrained-intra / no-strong-intra-smoothing / max-merge=5 / limit-refs=3 / no-limit-modes / me=3 / subme=7 / merange=57 / temporal-mvp / weightp / no-weightb / no-analyze-src-pics / deblock=-3:-3 / no-sao / no-sao-non-deblock / rd=6 / no-early-skip / no-rskip / no-fast-intra / no-tskip-fast / no-cu-lossless / no-b-intra / no-splitrd-skip / rdpenalty=0 / psy-rd=2.00 / psy-rdoq=0.00 / no-rd-refine / no-lossless / cbqpoffs=0 / crqpoffs=0 / rc=crf / crf=20.0 / qcomp=0.60 / qpstep=4 / stats-write=0 / stats-read=0 / vbv-maxrate=50000 / vbv-bufsize=50000 / vbv-init=0.9 / crf-max=0.0 / crf-min=0.0 / ipratio=1.40 / pbratio=1.30 / aq-mode=3 / aq-strength=1.00 / no-cutree / zone-count=0 / no-strict-cbr / qg-size=32 / no-rc-grain / qpmax=69 / qpmin=0 / no-const-vbv / sar=1 / overscan=0 / videoformat=5 / range=0 / colorprim=1 / transfer=1 / colormatrix=1 / chromaloc=0 / display-window=0 / max-cll=0,0 / min-luma=0 / max-luma=1023 / log2-max-poc-lsb=8 / vui-timing-info / vui-hrd-info / slices=1 / no-opt-qp-pps / no-opt-ref-list-length-pps / no-multi-pass-opt-rps / scenecut-bias=0.05 / no-opt-cu-delta-qp / no-aq-motion / no-hdr / no-hdr-opt / no-dhdr10-opt / no-idr-recovery-sei / analysis-reuse-level=5 / scale-factor=0 / refine-intra=0 / refine-inter=0 / refine-mv=0 / no-limit-sao / ctu-info=0 / no-lowpass-dct / refine-mv-type=0 / copy-pic=1 / max-ausize-factor=1.0 / no-dynamic-refine / no-single-sei
Язык : English
Default : Да
Forced : Нет
Цветовой диапазон : Limited
Основные цвета : BT.709
Характеристики трансфера : BT.709
Коэффициенты матрицы : BT.709

Аудио #1
Идентификатор : 2
Формат : AC-3
Формат/Информация : Audio Coding 3
Коммерческое название : Dolby Digital
Идентификатор кодека : A_AC3
Продолжительность : 2 ч. 27 м.
Вид битрейта : Постоянный
Битрейт : 448 Кбит/сек
Каналы : 6 каналов
ChannelLayout : L R C LFE Ls Rs
Частота : 48,0 КГц
Частота кадров : 31,250 кадров/сек (1536 SPF)
Битовая глубина : 16 бит
Метод сжатия : С потерями
Размер потока : 473 Мбайт (17%)
Заголовок : Дубляж
Язык : Russian
Default : Да
Forced : Нет

Аудио #2
Идентификатор : 3
Формат : AC-3
Формат/Информация : Audio Coding 3
Коммерческое название : Dolby Digital
Идентификатор кодека : A_AC3
Продолжительность : 2 ч. 27 м.
Вид битрейта : Постоянный
Битрейт : 448 Кбит/сек
Каналы : 6 каналов
ChannelLayout : L R C LFE Ls Rs
Частота : 48,0 КГц
Частота кадров : 31,250 кадров/сек (1536 SPF)
Битовая глубина : 16 бит
Метод сжатия : С потерями
Размер потока : 473 Мбайт (17%)
Заголовок : Original
Язык : English
Default : Нет
Forced : Нет

Текст #1
Идентификатор : 4
Формат : UTF-8
Идентификатор кодека : S_TEXT/UTF8
Идентификатор кодека/Информация : UTF-8 Plain Text
Продолжительность : 1 ч. 44 м.
Битрейт : 2 бит/сек
ElementCount : 59
Размер потока : 1,91 Кбайт (0%)
Заголовок : Rus Forced
Язык : Russian
Default : Да
Forced : Да

Текст #2
Идентификатор : 5
Формат : UTF-8
Идентификатор кодека : S_TEXT/UTF8
Идентификатор кодека/Информация : UTF-8 Plain Text
Продолжительность : 2 ч. 25 м.
Битрейт : 74 бит/сек
ElementCount : 1722
Размер потока : 80,1 Кбайт (0%)
Заголовок : Rus Full
Язык : Russian
Default : Нет
Forced : Нет

Текст #3
Идентификатор : 6
Формат : UTF-8
Идентификатор кодека : S_TEXT/UTF8
Идентификатор кодека/Информация : UTF-8 Plain Text
Продолжительность : 2 ч. 25 м.
Битрейт : 50 бит/сек
ElementCount : 1865
Размер потока : 54,2 Кбайт (0%)
Заголовок : Eng Full
Язык : English
Default : Нет
Forced : Нет

Меню
00:00:00.000 : :Chapter 1
00:09:01.958 : :Chapter 2
00:13:04.993 : :Chapter 3
00:21:03.345 : :Chapter 4
00:27:53.380 : :Chapter 5
00:31:57.290 : :Chapter 6
00:35:08.398 : :Chapter 7
00:42:58.451 : :Chapter 8
00:52:04.621 : :Chapter 9
01:05:39.102 : :Chapter 10
01:16:41.639 : :Chapter 11
01:22:28.777 : :Chapter 12
01:29:29.489 : :Chapter 13
01:34:09.769 : :Chapter 14
01:45:38.582 : :Chapter 15
01:55:54.322 : :Chapter 16
02:02:35.056 : :Chapter 17
02:12:14.176 : :Chapter 18
02:18:29.384 : :Chapter 19
Источник http://BlaTor.org

Внимание! AdBlock блокирует показ скриншотов, все вопросы к разработчикам )))
Трекер:  [ 30-Июн-2019 17:10 ]

  

Скачать .torrent

Размер .torrent файла 14 KB


Размер: 2.76 GB
Хэш (hash) релиза: 3a09a890601a4dbd8558b3bc575db302b35827e9
Подписка на обновления:

Торренты, похожие на Первый мститель: Противостояние Captain America: Civil War скачать торрент

Форум Название Автор Размер S L Добавлен
Зарубежные фильмы 2016-2019 (Новинки зарубежного кино) ·%· Первый мститель: Противостояние / Captain America: Civil War (2016) UHD BDRip-HEVC 2160p | 4K | HDR | D, P, A Galfimbul 2339147142021.79 GB 0 0 1560940828

13:40

19-Июн-19

Трейлеры и дополнительные материалы ·· Первый Мститель: Противостояние / Captain America: Civil War (Энтони Руссо / Anthony Russo, Джо Руссо / Joe Russo) [2016, Фантастика | Боевик | Приключения, BDRip 720p] дополнительные материалы Galfimbul 23889707532.22 GB 0 0 1529055016

12:30

15-Июн-18

Зарубежные фильмы до 2016 ·· Первый мститель: Противостояние / Captain America: Civil War (Энтони Руссо, Джо Руссо / Anthony Russo, Joe Russo) [2016, США, фантастика, боевик, приключения, BDRip 1080p] Dub (iTunes) + MVO (FocusStudio) + Sub Rus, Eng + Original Eng Galfimbul 1609636730214.99 GB 0 0 1485188780

19:26

23-Янв-17

Зарубежные фильмы 2016-2019 (Новинки зарубежного кино) ·· Первый мститель: Противостояние / Captain America: Civil War (Джо Руссо / Joe Russo, Энтони Руссо / Anthony Russo) [2016, США, фантастика, боевик, триллер, приключения, HDRip] [IMAX Edition] Dub + Sub (rus forced) Galfimbul 15647853331.46 GB 0 0 1476165805

09:03

11-Окт-16

Зарубежные фильмы 2016-2019 (Новинки зарубежного кино) ·· Первый мститель: Противостояние / Captain America: Civil War (Джо Руссо / Joe Russo, Энтони Руссо / Anthony Russo) [2016, США, фантастика, боевик, триллер, приключения, HDRip-AVC] Dub + Sub (rus, eng) Galfimbul 15692664181.46 GB 0 0 1476165659

09:00

11-Окт-16

Зарубежные фильмы до 2016 ·· Первый мститель: Противостояние / Captain America: Civil War (Энтони Руссо, Джо Руссо / Anthony Russo, Joe Russo) [2016, США, Германия, Фантастика, боевик, приключения, DVD5 (сжатый)] исх. R5, Dub + Sub Rus Galfimbul 46947471364.37 GB 0 0 1475135268

10:47

29-Сен-16

Зарубежные фильмы до 2016 ·· Первый мститель: Противостояние / Captain America: Civil War (Энтони Руссо, Джо Руссо / Anthony Russo, Joe Russo) [2016, США, Германия, фантастика, боевик, приключения, DVD9] R5 Dub + Sub Rus Galfimbul 69152931846.44 GB 0 0 1474887174

13:52

26-Сен-16

Зарубежные фильмы до 2016 ·· Первый мститель: Противостояние / Captain America: Civil War (Энтони Руссо, Джо Руссо / Anthony Russo, Joe Russo) [2016, США, фантастика, боевик, приключения, BDRip 1080p] Dub (iTunes) + Sub Rus, Eng + Original Eng Galfimbul 1442357195013.43 GB 0 0 1474126246

18:30

17-Сен-16

Зарубежные фильмы до 2016 ·· Первый мститель: Противостояние / Captain America: Civil War (Энтони Руссо, Джо Руссо / Anthony Russo, Joe Russo) [2016, США, фантастика, боевик, приключения, BDRip 720p] [IMAX Edition] Dub (iTunes) + MVO (FocusStudio) + Sub Rus, Eng + Original Eng Galfimbul 98528985929.18 GB 0 0 1474126165

18:29

17-Сен-16

Зарубежные фильмы 2016-2019 (Новинки зарубежного кино) ·· Первый мститель: Противостояние / Captain America: Civil War (Джо Руссо / Joe Russo, Энтони Руссо / Anthony Russo) [2016, США, фантастика, боевик, триллер, приключения, BDRip-AVC] [IMAX Edition] Dub + Original + Sub (rus, eng) Galfimbul 31328372192.92 GB 0 0 1473451785

23:09

9-Сен-16

Зарубежные фильмы 2016-2019 (Новинки зарубежного кино) ·· Первый мститель: Противостояние / Captain America: Civil War (Джо Руссо / Joe Russo, Энтони Руссо / Anthony Russo) [2016, США, фантастика, боевик, триллер, приключения, HDRip] Dub Galfimbul 15688908801.46 GB 0 0 1473172529

17:35

6-Сен-16

Зарубежные фильмы 2016-2019 (Новинки зарубежного кино) ·· Первый мститель: Противостояние / Captain America: Civil War (Джо Руссо / Joe Russo, Энтони Руссо / Anthony Russo) [2016, США, фантастика, боевик, триллер, приключения, BDRip] Dub + Subs (rus) Galfimbul 22642464772.11 GB 0 0 1473172510

17:35

6-Сен-16

Зарубежные фильмы 2016-2019 (Новинки зарубежного кино) ·· Первый мститель: Противостояние / Captain America: Civil War (Джо Руссо / Joe Russo, Энтони Руссо / Anthony Russo) [2016, США, фантастика, боевик, триллер, приключения, BDRip] MVO (FocusStudio) + Sub Rus (forced) Galfimbul 23462249182.19 GB 0 0 1473172432

17:33

6-Сен-16

Зарубежные фильмы 2016-2019 (Новинки зарубежного кино) ·· Первый мститель: Противостояние / Captain America: Civil War (2016) BDRip 1080p от New-Team | IMAX Edition | iTunes, P Galfimbul 1883956567617.55 GB 0 0 1473131670

06:14

6-Сен-16

Зарубежные фильмы 2016-2019 (Новинки зарубежного кино) ·· Первый мститель: Противостояние / Captain America: Civil War (2016) BDRip-AVC от NNNB | P Galfimbul 31241825982.91 GB 0 0 1472892469

11:47

3-Сен-16

Зарубежные фильмы 2016-2019 (Новинки зарубежного кино) ·· Первый мститель: Противостояние / Captain America: Civil War (Джо Руссо / Joe Russo, Энтони Руссо / Anthony Russo) [2016, США, фантастика, боевик, триллер, приключения, BDRip-AVC] Dub + Sub (rus) Galfimbul 23362487262.18 GB 0 0 1472707378

08:22

1-Сен-16

Зарубежные фильмы 2016-2019 (Новинки зарубежного кино) ·· Первый мститель: Противостояние / Captain America: Civil War (Джо Руссо / Joe Russo, Энтони Руссо / Anthony Russo) [2016, США, фантастика, боевик, триллер, приключения, BDRip-AVC] Dub + Original + Sub (rus, eng) Galfimbul 31732399562.96 GB 0 0 1472707374

08:22

1-Сен-16

Зарубежные фильмы до 2016 ·· Первый мститель: Противостояние / Captain America: Civil War (Энтони Руссо, Джо Руссо / Anthony Russo, Joe Russo) [2016, США, Фантастика, боевик, приключения, BDRip 720p] Dub (iTunes) + Sub Rus, Eng + Original Eng Galfimbul 70424153196.56 GB 0 0 1472677653

00:07

1-Сен-16

Зарубежные фильмы 2016-2019 (Новинки зарубежного кино) ·· Первый мститель: Противостояние / Captain America: Civil War (Джо Руссо / Joe Russo, Энтони Руссо / Anthony Russo) [2016, США, Фантастика, боевик, триллер, приключения, HDRip] Dub (iTunes) Galfimbul 22044446722.05 GB 0 0 1472539167

09:39

30-Авг-16

Еще никто не оставлял запись к записи скачать торрент Первый мститель: Противостояние Captain America: Civil War . Будь первым!

!Обратная связь