Скачать через торрент Письмо из прошлого Фильм бесплатно в хорошем качестве torrent

Скачивайте на UnionPeer.org фильмы через торрент без регистрации. Новинки кино в хорошем качестве через торрент. На UnionPeer.org можно скачать через торрент фильмы 2014 и 2015 годов. Самые новые фильмы.

Скачать торрент Письмо из прошлого бесплатно через .torrent фильм мультфильм сериал

Статистика раздачи
Размер:  486 MB   |    Зарегистрирован:  20 дней   |    .torrent скачан:  150 раз   |   
Раздают:  1  
   
загрузка...
 
Автор Сообщение

Galfimbul

avatar Galfimbul


Оригинальное название: Письмо из прошлого
Год выпуска: 2018
Жанр: Короткометражный, драма, военный
Режиссер: Андрей Епифанцев
Актеры: Юрий Коробов, Артем Быков, Кристина Равино, Дмитрий Нечаев, Артем Левшинов

Описание:
На болоте в Ленинградской области находят старый советский танк с погибшим экипажем. Среди сохранившихся личных вещей — последнее письмо механика-водителя своей жене. Прощальные слова открывают обстоятельства гибели танкистов, уже более 70 лет считавшихся пропавшими без вести.


Производство: Беларусь
Продолжительность: 00:24:42
Язык озвучки: Русский
Субтитры: Нет

Файл
Качество видео: WEB-DL 1080p
Видео: x264, 1920x1080, ~2618 Kbps
Аудио: AAC, 2 ch, ~128 Kbps
General
Unique ID : 96728170165347353149008794339905740277 (0x48C52AFE083985125D9128297CF19DF5)
Complete name : Письмо из прошлого 2018.mkv
Format : Matroska
Format version : Version 4
File size : 486 MiB
Duration : 24 min 42 s
Overall bit rate : 2 750 kb/s
Movie name : Письмо из прошлого (2018)
Encoded date : UTC 2019-07-03 09:57:57
Writing application : mkvmerge v35.0.0 ('All The Love In The World') 64-bit
Writing library : libebml v1.3.9 + libmatroska v1.5.2
Attachments : poster.jpg / poster 2.jpg

Video
ID : 1
Format : AVC
Format/Info : Advanced Video Codec
Format profile : High@L4
Format settings : CABAC / 3 Ref Frames
Format settings, CABAC : Yes
Format settings, Reference : 3 frames
Codec ID : V_MPEG4/ISO/AVC
Duration : 24 min 42 s
Bit rate : 2 618 kb/s
Width : 1 920 pixels
Height : 1 080 pixels
Display aspect ratio : 16:9
Frame rate mode : Constant
Frame rate : 25.000 FPS
Color space : YUV
Chroma subsampling : 4:2:0
Bit depth : 8 bits
Scan type : Progressive
Bits/(Pixel*Frame) : 0.051
Stream size : 463 MiB (95%)
Language : Russian
Default : Yes
Forced : No
Color range : Limited
Color primaries : BT.709
Transfer characteristics : BT.709
Matrix coefficients : BT.709

Audio
ID : 2
Format : AAC LC
Format/Info : Advanced Audio Codec Low Complexity
Codec ID : A_AAC-2
Duration : 24 min 42 s
Bit rate : 128 kb/s
Channel(s) : 2 channels
Channel layout : L R
Sampling rate : 44.1 kHz
Frame rate : 43.066 FPS (1024 SPF)
Compression mode : Lossy
Delay relative to video : 12 ms
Stream size : 22.6 MiB (5%)
Language : Russian
Default : Yes
Forced : No

Menu
00:00:00.000 : en:Глава 01
00:05:00.000 : en:Глава 02
00:10:00.000 : en:Глава 03
00:15:00.000 : en:Глава 04
00:20:00.000 : en:Глава 05
Источник http://BlaTor.org

Трекер:  [ 03-Июл-2019 13:10 ]

  

Скачать .torrent

Размер .torrent файла 19 KB


Размер: 486 MB
Хэш (hash) релиза: e108031c21090ec1ef00e9364376f355944c814a
Подписка на обновления:

Еще никто не оставлял запись к записи скачать торрент Письмо из прошлого . Будь первым!

!Обратная связь