Скачать через торрент Гости Фильм бесплатно в хорошем качестве torrent

Скачивайте на UnionPeer.org фильмы через торрент без регистрации. Новинки кино в хорошем качестве через торрент. На UnionPeer.org можно скачать через торрент фильмы 2014 и 2015 годов. Самые новые фильмы.

Скачать торрент Гости бесплатно через .torrent фильм мультфильм сериал

Статистика раздачи
Размер:  745 MB   |    Зарегистрирован:  4 месяца 16 дней   |    .torrent скачан:  61 раз   |   
Раздают:  1  
 

Скачать Гости (2019) HDRip от GeneralFilm | Лицензия через torrent

 
загрузка...
 
Автор Сообщение

Galfimbul

avatar Galfimbul


Оригинальное название: Гости
Год выпуска: 2019
Жанр: триллер, ужасы, мелодрама
Выпущено: Россия, «Enjoy Movies»
Режиссер: Евгений Абызов
В ролях: Юрий Чурсин, Ангелина Стречина, Михаил Мещеряков, Анастасия Уколова, Анар Халилов, Евгений Егоров, Марина Панферова, Иван Верховых

О фильме: Юная Катя знакомится с веселой компанией приезжих ребят, у которых есть специфическое развлечение — устраивать вечеринки в чужих пустующих домах. И Катя знает подходящее место: старинная дача на побережье, хозяин которой давно уехал. Уединенно расположенный дом, в котором в начале прошлого века был спиритический салон, кажется всем отличным вариантом. Тревожная, даже жуткая заброшенность этого места никого не отпугивает… В разгар вечеринки появляется тот, кого Катя никак не ожидала увидеть: таинственный хозяин дома… Человек, которого она любила. Человек, находящийся во власти потусторонних сил...



Качество: HDRip
Видео: XviD build 73, 720x304 (2.37:1), 23.976 fps, 1051 Kbps (0.200 bit/pixel)
Аудио: 48.0 kHz, MP3, 2 ch, 128 kbps
Продолжительность: 01:27:37
Перевод: Не требуется [Русский]
Cубтитры: нет
General
Complete name : D:RazdachiGosti.2018.HDRip.745Mb.Generalfilm.avi
Format : AVI
Format/Info : Audio Video Interleave
File size : 745 MiB
Duration : 1 h 27 min
Overall bit rate : 1 188 kb/s
Writing application : VirtualDubMod 1.5.10.3 | www.virtualdub-fr.org || (build 2550/release)
Writing library : VirtualDubMod build 2550/release

Video
ID : 0
Format : MPEG-4 Visual
Format profile : Advanced Simple@L5
Format settings : BVOP1 / Custom Matrix
Format settings, BVOP : 1
Format settings, QPel : No
Format settings, GMC : No warppoints
Format settings, Matrix : Custom
Codec ID : XVID
Codec ID/Hint : XviD
Duration : 1 h 27 min
Bit rate : 1 051 kb/s
Width : 720 pixels
Height : 304 pixels
Display aspect ratio : 2.35:1
Frame rate : 23.976 (24000/1001) FPS
Color space : YUV
Chroma subsampling : 4:2:0
Bit depth : 8 bits
Scan type : Progressive
Compression mode : Lossy
Bits/(Pixel*Frame) : 0.200
Stream size : 659 MiB (88%)
Writing library : XviD 73

Audio
ID : 1
Format : MPEG Audio
Format version : Version 1
Format profile : Layer 3
Codec ID : 55
Codec ID/Hint : MP3
Duration : 1 h 27 min
Bit rate mode : Constant
Bit rate : 128 kb/s
Channel(s) : 2 channels
Sampling rate : 48.0 kHz
Frame rate : 41.667 FPS (1152 SPF)
Compression mode : Lossy
Stream size : 80.2 MiB (11%)
Alignment : Aligned on interleaves
Interleave, duration : 42 ms (1.00 video frame)
Interleave, preload duratio : 504 ms
Writing library : LAME3.99r
Encoding settings : -m s -V 4 -q 2 -lowpass 17 -b 128
Релиз от:
Источник http://BlaTor.org

Трекер:  [ 06-Июл-2019 18:50 ]

  

Скачать .torrent

Размер .torrent файла 15 KB


Размер: 745 MB
Хэш (hash) релиза: 15edd0fe28d4c962f9df62826b2d3b114c551976
Подписка на обновления:

Торренты, похожие на Гости скачать торрент

Форум Название Автор Размер S L Добавлен
Зарубежные фильмы до 2016 ·· Гость / Гость в доме / Houseguest (Рэндолл Миллер / Randall Miller) [1995, США, Комедия, семейный, DVDRip] AVO (А. Гаврилов) + Original (Eng) Galfimbul 15760281601.47 GB 0 0 1374136698

11:38

18-Июл-13

Зарубежные фильмы до 2016 ·· Незваный гость / Гость, когда же ты свалишь? / Atithi Tum Kab Jaoge? (Ашвани Дхир / Ashwani Dhir) [2010, Индия, Драма, комедия, DVDRip] MVO (Red Media) Galfimbul 15139840001.41 GB 0 0 1367786099

23:34

5-Май-13

Зарубежные фильмы 2016-2018 (Новинки зарубежного кино) ·%· Гость на свадьбе / The Wedding Guest (2018) BDRip 720p от OlLanDGroup | iTunes Galfimbul 35089434773.27 GB 0 0 1571314831

15:20

17-Окт-19

Зарубежные фильмы 2016-2018 (Новинки зарубежного кино) ·%· Гость на свадьбе / The Wedding Guest (2018) BDRip-AVC от OlLanDGroup | iTunes Galfimbul 15992723271.49 GB 0 0 1571233810

16:50

16-Окт-19

Зарубежные фильмы 2016-2018 (Новинки зарубежного кино) ·%· Гость на свадьбе / The Wedding Guest (2018) BDRip от MegaPeer | iTunes Galfimbul 15680962561.46 GB 0 0 1571211012

10:30

16-Окт-19

Зарубежные фильмы 2016-2018 (Новинки зарубежного кино) ·%· Гость на свадьбе / The Wedding Guest (2018) BDRip 1080p от селезень | iTunes Galfimbul 75314675687.01 GB 0 0 1571203807

08:30

16-Окт-19

Зарубежные фильмы 2016-2018 (Новинки зарубежного кино) ·%· Гость на свадьбе / The Wedding Guest (2018) BDRemux 1080p от селезень | iTunes Galfimbul 1996942552318.6 GB 0 0 1571180419

02:00

16-Окт-19

Российские фильмы 2016-2018 (Новинки русского кино) ·%· Гости (2019) BDRip 1080p | Лицензия Galfimbul 70423549156.56 GB 2 0 1563786814

12:13

22-Июл-19

Зарубежные фильмы 2016-2018 (Новинки зарубежного кино) ·%· Незваный гость / The Intruder (2019) HDRip от Portablius | Лицензия Galfimbul 782719228746 MB 0 0 1563783151

11:12

22-Июл-19

Российские фильмы 2016-2018 (Новинки русского кино) ·%· Гости (2019) BDRemux 1080p | GER Transfer | Лицензия Galfimbul 1900970056917.7 GB 0 0 1563715897

16:31

21-Июл-19

Зарубежные фильмы 2016-2018 (Новинки зарубежного кино) ·%· Незваный гость / The Intruder (2019) BDRip 720p от селезень | Лицензия Galfimbul 43745260784.07 GB 0 0 1563700824

12:20

21-Июл-19

Зарубежные фильмы 2016-2018 (Новинки зарубежного кино) ·%· Незваный гость / The Intruder (2019) BDRip-AVC от ExKinoRay | Лицензия Galfimbul 27527321152.56 GB 0 0 1563700811

12:20

21-Июл-19

Российские фильмы 2016-2018 (Новинки русского кино) ·%· Гости (2019) BDRip от Twister & ExKinoRay | Лицензия Galfimbul 15684253901.46 GB 0 0 1563694271

10:31

21-Июл-19

Зарубежные фильмы 2016-2018 (Новинки зарубежного кино) ·%· Незваный гость / The Intruder (2019) BDRip 1080p от селезень | Лицензия Galfimbul 86261411398.03 GB 0 0 1563687610

08:40

21-Июл-19

Зарубежные фильмы 2016-2018 (Новинки зарубежного кино) ·%· Незваный гость / The Intruder (2019) BDRip-AVC от OlLanDGroup | Лицензия Galfimbul 20605384591.92 GB 0 0 1563685243

08:00

21-Июл-19

Зарубежные фильмы 2016-2018 (Новинки зарубежного кино) ·%· Незваный гость / The Intruder (2019) BDRip от Twister & ExKinoRay | Лицензия Galfimbul 15708652621.46 GB 0 0 1563661825

01:30

21-Июл-19

Зарубежные фильмы 2016-2018 (Новинки зарубежного кино) ·%· Незваный гость / The Intruder (2019) BDRemux 1080p от селезень | Лицензия Galfimbul 2123705846219.78 GB 0 0 1563643829

20:30

20-Июл-19

Зарубежные фильмы 2016-2018 (Новинки зарубежного кино) ·%· Незваный гость / The Intruder (2019) Blu-Ray EUR 1080p | Лицензия Galfimbul 3480839536032.42 GB 0 0 1563641438

19:50

20-Июл-19

Зарубежные фильмы 2016-2018 (Новинки зарубежного кино) ·%· Гость на свадьбе / The Wedding Guest (2018) WEB-DLRip от Portablius | iTunes Galfimbul 782184448746 MB 0 0 1563038410

20:20

13-Июл-19

Зарубежные фильмы 2016-2018 (Новинки зарубежного кино) ·%· Гость на свадьбе / The Wedding Guest (2018) WEB-DL 1080p | iTunes Galfimbul 68316116946.36 GB 2 0 1562761910

15:31

10-Июл-19

Еще никто не оставлял запись к записи скачать торрент Гости . Будь первым!

!Обратная связь